//TJADB Project
TITLE:oddloop
TITLEJA:オドループ
SUBTITLE:--FREDERIC
SUBTITLEJA:フレデリック
BPM:172
WAVE:oddloop.ogg
OFFSET:-0.959
DEMOSTART:45.380

COURSE:Oni
LEVEL:8
BALLOON:23,23
SCOREINIT:450,1430
SCOREDIFF:108
#START
1010201120102021,
1020001120201021,
1010201120102021,
1020001120202021,
1010201120102021,
1020001120201021,
1010201120102021,
1020001120202021, //8
1010201120102021,
1020001120201021,
1010201120102021,
1020001120202021,
1010201120102021,
1020001120201021,
1010201120102021,
1020001120222010, //16
10211121,
1110200010102010,
10221221,
10202221,
11221121,
1110200010102010,
1110202010202010,
11202121, //24
1110202010102010,
10201121,
1110201110202010,
11201021,
1110201010102010,
10201121,
7,
0000000080000011, //32
#GOGOSTART
1010201120102011,
1020200010202011,
1010201120102011,
1011201120202011,
1010201120102011,
1020200010202011,
1010201120102010,
33334040, //40
11211122,
1010202220102011,
1010201120102011,
1020200010202011,
1010201120102011,
1020201022202010,
6,
000000000000000000000008000000200000200000100100, //48
#GOGOEND
1010201120102021,
1020001120201021,
1010201120102021,
1020001120202021,
1010201120102021,
1020001120201021,
1010201120102021,
1020001120202010, //56
10221121,
1110200020102010,
1110202010202010,
11202021,
1110202010202010,
10202121,
1110202010102010,
11202021, //64
11201121,
10202333,
30440403,
30401021,
10221121,
1110201011102010,
7,
0000000080000011, //72
#GOGOSTART
1010201120102011,
1020200010202011,
1010201120102011,
1010202220202011,
1010201120102011,
1020200010202011,
1010201120102010,
33334040, //80
11211121,
1010202220202011,
1010201120102011,
1020200010202011,
1010201120102011,
1010201120102010,
6,
000000000000000000000000000000000000000008000000,
#GOGOEND
3,
0,
0,
0, //92
#END

COURSE:Hard
LEVEL:5
BALLOON:17,17
SCOREINIT:560,2470
SCOREDIFF:140
#START
10101012,
02012100,
10101012,
02012200,
10101012,
02012100,
10102012,
02012200, //8
10101012,
02012100,
10101012,
02012200,
10101012,
02012100,
10102012,
02012201, //16
10220111,
10200111,
10220201,
10200001,
10220111,
10200111,
10220201,
11200001, //24
10220111,
10200111,
10220201,
11200001,
10201111,
10200111,
7,
00008001, //32
#GOGOSTART
10211120,
11200001,
10211120,
11212001,
10211120,
11200001,
10211120,
33333040, //40
0,
11222011,
10211120,
11200001,
10211120,
11212020,
6,
000000000000000000000008000000000000000000000000, //48
#GOGOEND
10101012,
02012100,
10101012,
02012200,
10101012,
02012100,
10102012,
02012201, //56
10220111,
10200111,
10220201,
11200001,
10220111,
10200111,
10220201,
11200001, //64
11201111,
10200111,
10220201,
10200001,
10220111,
11101111,
7,
00008001, //72
#GOGOSTART
10211120,
11200001,
10211120,
11212001,
10211120,
11200001,
10211120,
33333040, //80
0,
11222011,
10211120,
11200001,
10211120,
11212020,
6,
000000000000000000000000000000000000000008000000,
#GOGOEND
3,
0,
0,
0, //92
#END

COURSE:Normal
LEVEL:4
BALLOON:12,12
SCOREINIT:630,3930
SCOREDIFF:183
#START
10101001,
01001000,
10101001,
01002000,
10101001,
01001000,
10101001,
01002000, //8
10101001,
01001000,
10101001,
01002000,
10101001,
01001000,
10101001,
01002000, //16
10110010,
1100,
10110000,
1100,
10110010,
2200,
10110000,
1100, //24
10110010,
1100,
10110000,
1100,
1110,
2200,
7,
08, //32
#GOGOSTART
30111010,
1100,
10111010,
2220,
10111010,
1100,
10111010,
3333, //40
0,
2211,
10111010,
1100,
10111010,
2222,
6,
000000000000000000000008000000000000000000000000, //48
#GOGOEND
10101001,
01001000,
10101001,
01002000,
10101001,
01001000,
10101001,
01002000, //56
10110010,
1100,
10110000,
1100,
10110010,
2200,
10110000,
1100, //64
1111,
1100,
10110100,
2200,
10110000,
1110,
7,
08, //72
#GOGOSTART
30111010,
1100,
10111010,
2220,
10111010,
1100,
10111010,
3333, //80
0,
2211,
10111010,
2200,
10111010,
2222,
6,
000000000000000000000000000000000000000008000000,
#GOGOEND
3,
0,
0,
0, //92
#END

COURSE:Easy
LEVEL:3
BALLOON:10,10
SCOREINIT:630,6260
SCOREDIFF:220
#START
1110,
01,
1110,
02,
1110,
01,
2220,
02, //8
1110,
01,
1110,
02,
1110,
01,
2220,
02, //16
1,
1100,
1,
1100,
1,
2200,
1,
1100, //24
1,
1100,
1,
1100,
1,
2200,
7,
08, //32
#GOGOSTART
1110,
1100,
1110,
12,
1110,
1100,
1110,
33, //40
0,
12,
1110,
1100,
1110,
12,
6,
000000000000000000000008000000000000000000000000, //48
#GOGOEND
1110,
01,
1110,
02,
1110,
01,
2220,
02, //56
1,
1100,
11,
1100,
1,
2200,
11,
1100, //64
11,
1100,
1100,
2200,
1,
11,
7,
08, //70
#GOGOSTART
1110,
1100,
1110,
12,
1110,
1100,
1110,
33, //80
0,
12,
1110,
1100,
1110,
12,
6,
000000000000000000000000000008000000000000000000,
#GOGOEND
3,
0,
0,
0, //92
#END
