//TJADB Project
TITLE:ALIVE
TITLEJA:ALIVE
SUBTITLE:--Lycoris Recoil
SUBTITLEJA:「リコリス・リコイル」より
BPM:175
WAVE:ALIVE.ogg
OFFSET:-1.815
DEMOSTART:42.726

COURSE:Oni
LEVEL:6
BALLOON:10,10
SCOREINIT:720,2540
SCOREDIFF:198
#START
#BARLINEOFF
#SCROLL 1.02
0,
#BARLINEON
22,
2,
#BPMCHANGE 180
#SCROLL 1
20202213,
0222, //5
#GOGOSTART
70000087,
00000800,
1000102010201011,
1010201010201110,
1000102010201011,
1010201110201010,
1000102010201011,
11210020, //13
#GOGOEND
#BPMCHANGE 174
#SCROLL 1.03
11211021,
1000201110102010,
1000202220002010,
1110201000102000,
11211021,
1000201110102010,
1000202220002010,
#BPMCHANGE 176
#SCROLL 1.02
10211210, //21
10212011,
1020100011102220,
10212011,
1020100011101110,
#BPMCHANGE 178
#SCROLL 1.01
10211122,
10211122,
10211120,
1022201011101010,
600000000000000000000000000000000000000008000000,
1010200020111000, //31
#BPMCHANGE 180
#SCROLL 1
#GOGOSTART
1000111020102011,
1010201020102220,
1000111020102011,
1010201110102010,
11201212,
11201212,
1110101110101060,
000000000000000000000000000008000000000000000000, //39
1000111020102011,
1010201020102220,
1000111010101011,
1000222020202022,
11201212,
11201212,
1110101110101060,
000000000000000000000000000008000000000000000000, //47
#GOGOEND
1000102000102011,
11121020,
1000111020001110,
1011102220000000,
10210120,
11210121,
3000203000201110,
21121022,
10220220,
10220210, //57
#GOGOSTART
1110201000102000,
1110201000102000,
30230230,
23023223,
#GOGOEND
0,
0,
0,
0, //65
#END

COURSE:Hard
LEVEL:5
BALLOON:21,16
SCOREINIT:980,4290
SCOREDIFF:293
#START
#BARLINEOFF
#SCROLL 1.02
0,
#BARLINEON
22,
2,
#BPMCHANGE 180
#SCROLL 1
20002003,
0222, //5
#GOGOSTART
9,
09,
8,
0,
10121210,
11210110,
10121210,
11210000, //13
#GOGOEND
#BPMCHANGE 174
#SCROLL 1.03
11101020,
10211010,
10202011,
10211000,
11101020,
10211010,
10202011,
#BPMCHANGE 176
#SCROLL 1.02
10211000, //21
10212010,
1122,
10212010,
1144,
#BPMCHANGE 178
#SCROLL 1.01
10211020,
10211020,
10211020,
10211120,
600000000000000000000000000000000000000008000000,
0223, //31
#BPMCHANGE 180
#SCROLL 1
#GOGOSTART
10111021,
11212010,
10111021,
11212010,
11201210,
11201210,
6,
000000000000000000000000000008000000000000000000, //39
10111021,
11212010,
10121210,
10212120,
11201210,
11201210,
6,
000000000000000000000000000008000000000000000000, //47
#GOGOEND
10110121,
10121020,
10111011,
500000000000000000000008000000000000000000000000,
10110120,
10110120,
7,
00000800,
10220000,
10220000, //57
#GOGOSTART
11210121,
11210121,
6,
000000000000000000000000000000000000000008000000,
#GOGOEND
0,
0,
0,
0, //65
#END

COURSE:Normal
LEVEL:3
BALLOON:15,11
SCOREINIT:960,6350
SCOREDIFF:338
#START
#BARLINEOFF
#SCROLL 1.02
0,
#BARLINEON
22,
2,
#BPMCHANGE 180
#SCROLL 1
20002003,
0, //5
#GOGOSTART
9,
09,
8,
0,
1110,
10010000,
1110,
10020000, //13
#GOGOEND
#BPMCHANGE 174
#SCROLL 1.03
1011,
1011,
1220,
11,
2022,
2022,
2110,
#BPMCHANGE 176
#SCROLL 1.02
11, //21
1222,
1122,
1222,
1144,
#BPMCHANGE 178
#SCROLL 1.01
10011010,
10011010,
10011000,
6,
000000000000000000000000000000000000000008000000,
0, //31
#BPMCHANGE 180
#SCROLL 1
#GOGOSTART
10102011,
10111020,
10102011,
10111020,
10201110,
10201110,
6,
000000000000000000000000000008000000000000000000, //39
10102011,
10111020,
10101110,
20202220,
10201110,
10201110,
6,
000000000000000000000000000008000000000000000000, //47
#GOGOEND
10010020,
10010000,
10011001,
12,
10110020,
10110020,
7,
00000800,
20020000,
20020000, //57
#GOGOSTART
10110010,
10110010,
6,
000000000000000000000000000000000000000008000000,
#GOGOEND
0,
0,
0,
0, //65
#END

COURSE:Easy
LEVEL:2
BALLOON:12,9
SCOREINIT:1150,11810
SCOREDIFF:730
#START
#BARLINEOFF
#SCROLL 1.02
0,
#BARLINEON
2,
0,
#BPMCHANGE 180
#SCROLL 1
2,
0, //5
#GOGOSTART
9,
09,
8,
0,
1110,
1,
1110,
1, //13
#GOGOEND
#BPMCHANGE 174
#SCROLL 1.03
1,
11,
1,
1,
2,
22,
2,
#BPMCHANGE 176
#SCROLL 1.02
11, //21
1,
12,
1,
12,
#BPMCHANGE 178
#SCROLL 1.01
1011,
1011,
11,
6,
000000000000000000000000000000000000000008000000,
0, //31
#BPMCHANGE 180
#SCROLL 1
#GOGOSTART
1110,
11,
1110,
11,
1011,
1011,
6,
000000000000000000000000000008000000000000000000, //39
1110,
11,
2220,
1110,
1011,
1011,
6,
000000000000000000000000000008000000000000000000, //47
#GOGOEND
10010000,
1,
10010000,
1,
10010000,
10010000,
7,
00000800,
2,
2, //57
#GOGOSTART
10010000,
10010000,
6,
000000000000000000000000000000000000000008000000,
#GOGOEND
0,
0,
0,
0, //65
#END
