TITLE:LΔchesis
SUBTITLE:--7mai
BPM:376
WAVE:Lchesis.ogg
OFFSET:-0.378
DEMOSTART:89.5

COURSE:Edit
LEVEL:10
BALLOON:48
SCOREINIT:
SCOREDIFF:
#START
#SCROLL 0.5
#MEASURE 8/4
12212212,
#MEASURE 7/4
20221022222212,
#MEASURE 8/4
12212212,
#MEASURE 7/4
20201022221122,
#MEASURE 8/4
12212212,
#MEASURE 7/4
20221022222212,
#MEASURE 8/4
10002000200010002000200011002000,
#MEASURE 7/4
200000000000100100000000200200000000100000100000
200000200000100010001000100010001000,
#GOGOSTART
#MEASURE 8/4
10000000100020001100100020001000,
#MEASURE 7/4
100000000000100000000000200200000000100000200000
100000200000100010001000100000000000,
#MEASURE 8/4
20001000100022001000100020001000,
#MEASURE 7/4
1000100022001020101020201010,
#MEASURE 8/4
20001000100020001100100020001000,
#MEASURE 7/4
100000000000100000000000200200000000100000200000
100000200000100010001000100000000000,
#MEASURE 8/4
20001000110020001000110020001000,
#MEASURE 7/4
100000000000100100000000200200000000100000100000
200000200000100010001000100010001000,
#SCROLL 0.75
#MEASURE 6/4
#BPMCHANGE 250.67
202020102010201022201020,
102020102010201220221222,
100300400300400122,
#SCROLL 0.5
#MEASURE 19/8
#BPMCHANGE 376
200000200000200000100000200000200000100000200000
200000100000200000000000000000600000000000000000
000008000000000000,
#GOGOEND
#MEASURE 8/4
30001000220010000000101020001020,
10002000220010000020100020001020,
10001000220010200020101020001020,
10002000220010201020101020002020,
10001000220010000000100020001020,
10002000220010000020100020001020,
10001000220010200020101020001020,
10002000220010201020101020000010,
20000000000020101000300020201111,
11110000220000001000100040002020,
10001000220010201010202010201000,
200000000000200000000000200200000000100000200000
100000002000000020000000100000002000000010000000,
10001000220040000000100040001000,
10002010220010201010202011111000,
00000000110000000000220010102000,
100000001000000010000000100000001000200010000000
200200000000000020000000000000002000200020002000,
#MEASURE 6/4
102020002220,
100000200000100000000000200200201000,
102020002220,
100000200000100000000000200200201000,
102020002220,
100000200000200000000000200200201000,
102020002220,
102020001220,
102020102220,
100000200000100000200000200200201000,
102020102220,
102010201220,
102020102220,
102010202210,
102010201222,
102010201222,
,
,
5,
000000000000000000000000000000000000000000000000
000000000008000000000000,
#MEASURE 8/4
30000000220010100000200010102020,
#MEASURE 10/4
1000101022001010000010102200200010201020,
1000000022001010000020001010202010001010,
200200000000100000100000000000000000200000200000
100000200000100000000000200000001000100010002000
100010001000100010001000,
#MEASURE 8/4
10001000220010101000200010102020,
#MEASURE 10/4
1000101022001010100010201100100020201020,
1000100022001000101022001020101022001020,
100000000000000000000000111111,
#GOGOSTART
#MEASURE 8/4
1011201211201212,
#MEASURE 10/4
10112012112021121021,
10112012112021212022,
100000000000200020002000200000200000100000000000
200200000000400000000000100000200000100000200000
200000200000100000200000,
#MEASURE 8/4
1011201211201212,
#MEASURE 10/4
10112012112021121021,
10112012112021212022,
#MEASURE 12/4
100020200200100200102020200200100200
100020200200100200102020200200102020,
#GOGOEND
#MEASURE 8/4
10001000220010100020100022001010,
#MEASURE 7/4
0000100022001020101020102020,
#MEASURE 8/4
10001000220010100020100022001010,
#MEASURE 7/4
0010100022001020102010102020,
#MEASURE 8/4
10001000220010100020100022001010,
#MEASURE 7/4
0000100022001020101020102020,
#MEASURE 8/4
10001000220010100020100022001010,
#MEASURE 7/4
000000100000100000100000200200000000100000200000
100000200000100010001000200020002000,
#GOGOSTART
#MEASURE 8/4
10001000220010100020101022001010,
#MEASURE 7/4
000000000000100000000000200200000000100000200000
100000100000200010001000200000200000,
#MEASURE 8/4
10001000220010100020101022001010,
#MEASURE 7/4
000000100000100000000000200200000000100000200000
100000200000100010001000200000200000,
#MEASURE 8/4
10001010220010102020101022001010,
#MEASURE 7/4
200000100000100000100000200200000000200000200000
100000100000200010001000200000200000,
#MEASURE 8/4
11111000100022222000200011111000,
#MEASURE 7/4
100000000000100100000000200200001000200000100000
200000100000200010002000100020001000,
#SCROLL 0.75
#MEASURE 6/4
#BPMCHANGE 250.67
202020102010201022201020,
102020102010201220221222,
100030004000300040004012,
#GOGOEND
#SCROLL 0.5
#MEASURE 8/4
#BPMCHANGE 376
222211112211,
4,
#SCROLL 1
#MEASURE 6/4
#BPMCHANGE 150
32222
#SCROLL 1.2
#BPMCHANGE 125
2,
#MEASURE 4/4
220000000000000000000000000000000000000000000000,
,
#END

COURSE:Oni
LEVEL:9
BALLOON:48
SCOREINIT:
SCOREDIFF:
#START
#SCROLL 0.5
#MEASURE 8/4
10010010,
#MEASURE 7/4
00001022221111,
#MEASURE 8/4
10010010,
#MEASURE 7/4
00002011112222,
#MEASURE 8/4
10010010,
#MEASURE 7/4
00001022221111,
#MEASURE 8/4
10010010,
#MEASURE 7/4
00221021201222,
#GOGOSTART
#MEASURE 8/4
11210120,
#MEASURE 7/4
00102022121102,
#MEASURE 8/4
11210120,
#MEASURE 7/4
00201022112102,
#MEASURE 8/4
11210120,
#MEASURE 7/4
00102022121102,
#MEASURE 8/4
11210120,
#MEASURE 7/4
00201021202222,
#SCROLL 0.75
#MEASURE 6/4
#BPMCHANGE 250.67
101010002000100022200020,
000000100000100000000000200000100000100000500000
000000000000000800000000,
333444,
#SCROLL 0.5
#MEASURE 19/8
#BPMCHANGE 376
600000000000000000000000000000000000000000000000
000008000000000000000000000000400000000000000000
000000000000000000,
#GOGOEND
#MEASURE 8/4
1010200010111020,
0020102000211020,
0022222211112211,
2011221122221110,
1010202000112000,
2222202010102020,
0011111122221020,
0011112000200000,
30030304,
0000104000211040,
0011112211112211,
200000200000000000200200100020002000200020000000,
1010202000221000,
0022112210202030,
00300304,
000000000100400040004000,
#MEASURE 6/4
110,
200200002,
110,
200200002,
110,
200200002,
110,
222,
110,
100200002,
110,
122,
110,
202002,
112,
212,
3,
022,
4,
2,
#MEASURE 8/4
1000001000201120,
#MEASURE 10/4
00112010001120200020,
10000010002011201011,
22200010002011102222,
#MEASURE 8/4
1000001000201120,
#MEASURE 10/4
00112010001120200020,
10000010002011201011,
2002024040,
#GOGOSTART
#MEASURE 8/4
1011201011102020,
#MEASURE 10/4
10112010111022112020,
10112010111011210210,
40111040101022112222,
#MEASURE 8/4
1011201011102020,
#MEASURE 10/4
10112010111022112020,
10112010111011210210,
#MEASURE 12/4
401110401010221111212222,
#GOGOEND
#MEASURE 8/4
11210121,
#MEASURE 7/4
00102022121102,
#MEASURE 8/4
11210121,
#MEASURE 7/4
00201022112102,
#MEASURE 8/4
11210121,
#MEASURE 7/4
00102022121102,
#MEASURE 8/4
11210121,
#MEASURE 7/4
00201022211122,
#GOGOSTART
#MEASURE 8/4
1011201002102010,
#MEASURE 7/4
00102022121102,
#MEASURE 8/4
1011201002102010,
#MEASURE 7/4
00201022112102,
#MEASURE 8/4
1011201022102010,
#MEASURE 7/4
20102022121102,
#MEASURE 8/4
1111201111201111,
#MEASURE 7/4
10104022122112,
#SCROLL 0.75
#MEASURE 6/4
#BPMCHANGE 250.67
101010002000100022200020,
000000100000100000000000200000100000100000500000
000000000000000800000000,
333444,
#GOGOEND
#SCROLL 0.5
#MEASURE 8/4
#BPMCHANGE 376
3,
4,
#SCROLL 1
#MEASURE 6/4
#BPMCHANGE 150
700000
#SCROLL 1.2
#BPMCHANGE 125
0,
#MEASURE 4/4
00000008,
,
#END

COURSE:Hard
LEVEL:7
BALLOON:35
SCOREINIT:
SCOREDIFF:
#START
#SCROLL 0.5
#MEASURE 8/4
10010010,
#MEASURE 7/4
00002011101010,
#MEASURE 8/4
10010010,
#MEASURE 7/4
00001022202020,
#MEASURE 8/4
10010010,
#MEASURE 7/4
00002011101010,
#MEASURE 8/4
10010010,
#MEASURE 7/4
00101022202020,
#GOGOSTART
#MEASURE 8/4
10210120,
#MEASURE 7/4
00102011101010,
#MEASURE 8/4
10210120,
#MEASURE 7/4
00201022202020,
#MEASURE 8/4
10210120,
#MEASURE 7/4
00102011101010,
#MEASURE 8/4
10210120,
#MEASURE 7/4
00201022202020,
#SCROLL 0.75
#MEASURE 6/4
#BPMCHANGE 250.67
5,
000000000000000000000000000000000000000000000000
000000008000000000000000,
333444,
#SCROLL 0.5
#MEASURE 19/8
#BPMCHANGE 376
600000000000000000000000000000000000000000000000
000000000008000000000000000000000000000000000000
000000000000000000,
#GOGOEND
#MEASURE 8/4
11201112,
02120001,
000000000000500000000000000000000000000000000000
000000000000000000000000000000000000000000000008,
,
11220010,
2220202010102020,
000000000000500000000000000000000000000000000000
000000000000000000000000000000000000000000000008,
00020200,
30030304,
00140003,
000000000000500000000000000000000000000000000000
000000000000000000000000000000000000000000000008,
,
11220010,
0022202010101030,
00300406,
000000000000000000000000000000000000000000000008
000000000000000000000000000000000000000000000000,
#MEASURE 6/4
1,
200200002,
1,
200200002,
1,
200000002,
1,
222,
1,
100200002,
1,
122,
1,
200002,
111,
222,
3,
022,
4,
2,
#MEASURE 8/4
10010212,
#MEASURE 10/4
00111010000020200020,
1001021011,
22200020002020002020,
#MEASURE 8/4
10010212,
#MEASURE 10/4
00111010000020200020,
1001011011,
2002024040,
#GOGOSTART
#MEASURE 8/4
11102222,
#MEASURE 10/4
10101000100022202020,
1110222211,
2002002020,
#MEASURE 8/4
11102222,
#MEASURE 10/4
10101000100022202020,
1110222211,
#MEASURE 12/4
500000000000000000000000000000000000000000000000
000000000000000000000000000000000000000000000000
000000000000000000000008000000000000000000000000,
#GOGOEND
#MEASURE 8/4
10210120,
#MEASURE 7/4
00102011101010,
#MEASURE 8/4
10210120,
#MEASURE 7/4
00201022202020,
#MEASURE 8/4
10210120,
#MEASURE 7/4
00102011101010,
#MEASURE 8/4
10210120,
#MEASURE 7/4
00201022202020,
#GOGOSTART
#MEASURE 8/4
11210120,
#MEASURE 7/4
00102011101010,
#MEASURE 8/4
11210120,
#MEASURE 7/4
00201022202020,
#MEASURE 8/4
11210120,
#MEASURE 7/4
20102011101010,
#MEASURE 8/4
30030030,
#MEASURE 7/4
00104011101110,
#SCROLL 0.75
#MEASURE 6/4
#BPMCHANGE 250.67
5,
000000000000000000000000000000000000000000000000
000000008000000000000000,
333444,
#GOGOEND
#SCROLL 0.5
#MEASURE 8/4
#BPMCHANGE 376
3,
4,
#SCROLL 1
#MEASURE 6/4
#BPMCHANGE 150
90000
#SCROLL 1.2
#BPMCHANGE 125
0,
#MEASURE 4/4
0008,
,
#END

COURSE:Normal
LEVEL:6
BALLOON:22
SCOREINIT:
SCOREDIFF:
#START
#SCROLL 0.5
#MEASURE 8/4
10010010,
#MEASURE 7/4
0010000,
#MEASURE 8/4
10010010,
#MEASURE 7/4
0010000,
#MEASURE 8/4
10010010,
#MEASURE 7/4
0010000,
#MEASURE 8/4
10010010,
#MEASURE 7/4
0010000,
#GOGOSTART
#MEASURE 8/4
10010110,
#MEASURE 7/4
0010220,
#MEASURE 8/4
10010110,
#MEASURE 7/4
0020220,
#MEASURE 8/4
10010110,
#MEASURE 7/4
0010220,
#MEASURE 8/4
10010110,
#MEASURE 7/4
0020220,
#SCROLL 0.75
#MEASURE 6/4
#BPMCHANGE 250.67
5,
000000000000000000000000000000000000000000000000
000000008000000000000000,
333330,
#SCROLL 0.5
#MEASURE 19/8
#BPMCHANGE 376
600000000000000000000000000000000000000000000000
000000000008000000000000000000000000000000000000
000000000000000000,
#GOGOEND
#MEASURE 8/4
10101022,
02020005,
000000000000000000000000000000000000000000000000
000000000000000000000000000000000000000000000008,
,
11110010,
22220005,
000000000000000000000000000000000000000000000000
000000000000000000000000000000000000000000000008,
,
30030304,
00040005,
000000000000000000000000000000000000000000000000
000000000000000000000000000000000000000000000008,
,
11110010,
02222003,
00300306,
000000000000000000000000000000000000000000000008
000000000000000000000000000000000000000000000000,
#MEASURE 6/4
1,
220,
1,
220,
1,
2,
1,
222,
1,
120,
1,
122,
1,
2,
111,
222,
3,
022,
4,
2,
#MEASURE 8/4
10010110,
#MEASURE 10/4
0101002200,
1001011010,
2002022020,
#MEASURE 8/4
10010110,
#MEASURE 10/4
0101002200,
1001011010,
2002004040,
#GOGOSTART
#MEASURE 8/4
10102220,
#MEASURE 10/4
1010102200,
1010102202,
2002002020,
#MEASURE 8/4
10102220,
#MEASURE 10/4
1010102200,
1010102220,
#MEASURE 12/4
500000000000000000000000000000000000000000000000
000000000000000000000000000000000000000000000000
000000000000000000000008000000000000000000000000,
#GOGOEND
#MEASURE 8/4
10010110,
#MEASURE 7/4
0010110,
#MEASURE 8/4
20020220,
#MEASURE 7/4
0020220,
#MEASURE 8/4
10010110,
#MEASURE 7/4
0010110,
#MEASURE 8/4
20020220,
#MEASURE 7/4
0020220,
#GOGOSTART
#MEASURE 8/4
10110110,
#MEASURE 7/4
0010220,
#MEASURE 8/4
10110110,
#MEASURE 7/4
0020220,
#MEASURE 8/4
10110110,
#MEASURE 7/4
0010220,
#MEASURE 8/4
30030030,
#MEASURE 7/4
0040220,
#SCROLL 0.75
#MEASURE 6/4
#BPMCHANGE 250.67
5,
000000000000000000000000000000000000000000000000
000000008000000000000000,
333330,
#GOGOEND
#SCROLL 0.5
#MEASURE 8/4
#BPMCHANGE 376
3,
4,
#SCROLL 1.0
#MEASURE 6/4
#BPMCHANGE 150
90000
#SCROLL 1.2
#BPMCHANGE 125
0,
#MEASURE 4/4
000000000000000008000000,
,
#END

COURSE:Easy
LEVEL:4
BALLOON:19
SCOREINIT:
SCOREDIFF:
#START
#SCROLL 0.5
#MEASURE 8/4
10010010,
#MEASURE 7/4
,
#MEASURE 8/4
10010010,
#MEASURE 7/4
,
#MEASURE 8/4
10010010,
#MEASURE 7/4
,
#MEASURE 8/4
10010010,
#MEASURE 7/4
,
#GOGOSTART
#MEASURE 8/4
10010010,
#MEASURE 7/4
0010000,
#MEASURE 8/4
10010010,
#MEASURE 7/4
0010000,
#MEASURE 8/4
10010010,
#MEASURE 7/4
0010000,
#MEASURE 8/4
10010010,
#MEASURE 7/4
0010000,
#SCROLL 0.75
#MEASURE 6/4
#BPMCHANGE 250.67
5,
000000000000000000000000000000000000000000000000
000000008000000000000000,
33,
#SCROLL 0.5
#MEASURE 19/8
#BPMCHANGE 376
600000000000000000000000000000000000000000000000
000000000008000000000000000000000000000000000000
000000000000000000,
#GOGOEND
#MEASURE 8/4
10101002,
00020005,
000000000000000000000000000000000000000000000000
000000000000000000000000000000000000000000000008,
,
10010000,
20020005,
000000000000000000000000000000000000000000000000
000000000000000000000000000000000000000000000008,
,
30030303,
00040005,
000000000000000000000000000000000000000000000000
000000000000000000000000000000000000000000000008,
,
10010010,
00000003,
00300306,
000000000000000000000000000000000000000000000008
000000000000000000000000000000000000000000000000,
#MEASURE 6/4
1,
,
1,
,
1,
,
1,
,
1,
110,
1,
110,
1,
2,
111,
1,
3,
,
4,
,
#MEASURE 8/4
10010010,
#MEASURE 10/4
0101002000,
1001001000,
2002002000,
#MEASURE 8/4
10010010,
#MEASURE 10/4
0101002000,
1001001000,
2002004040,
#GOGOSTART
#MEASURE 8/4
1110,
#MEASURE 10/4
1010100200,
1010100100,
2002002000,
#MEASURE 8/4
1110,
#MEASURE 10/4
1010100200,
1010100100,
#MEASURE 12/4
500000000000000000000000000000000000000000000000
000000000000000000000000000000000000000000000000
000000000000000000000008000000000000000000000000,
#GOGOEND
#MEASURE 8/4
10010010,
#MEASURE 7/4
0010000,
#MEASURE 8/4
20020020,
#MEASURE 7/4
0020000,
#MEASURE 8/4
10010010,
#MEASURE 7/4
0010000,
#MEASURE 8/4
20020020,
#MEASURE 7/4
0020000,
#GOGOSTART
#MEASURE 8/4
10010010,
#MEASURE 7/4
0010000,
#MEASURE 8/4
10010010,
#MEASURE 7/4
0020000,
#MEASURE 8/4
10010010,
#MEASURE 7/4
0010000,
#MEASURE 8/4
30030030,
#MEASURE 7/4
0040000,
#SCROLL 0.75
#MEASURE 6/4
#BPMCHANGE 250.67
5,
000000000000000000000000000000000000000000000000
000000008000000000000000,
33,
#GOGOEND
#SCROLL 0.5
#MEASURE 8/4
#BPMCHANGE 376
3,
4,
#SCROLL 1.0
#MEASURE 6/4
#BPMCHANGE 150
90000
#SCROLL 1.2
#BPMCHANGE 125
0,
#MEASURE 4/4
0008,
,
#END
