//TJADB Project
TITLE:Hater
TITLEJA:ヘイラ
SUBTITLE:--necchi
SUBTITLEJA:necchi
BPM:220
WAVE:Hater.ogg
OFFSET:-0.667
DEMOSTART:52.16 //shinuchi:
5780/3370/2280/1660/1170

COURSE:Edit
LEVEL:10
BALLOON:2,30,40
SCOREINIT:450,1220
SCOREDIFF:105
#START
1010202210102020,
1020102010002022,
1010101210121020,
1020102010002222,
1012101110221012,
1020102012221010,
10101111,
1110111011112222, //8
#GOGOSTART
1012201011202010,
2221101222102220,
1220102212201122,
1010121011121010,
1012201011222111,
2021112021112020,
000000200200200000100100200000100000200020001000,
100020002000100200100200100100100100700000800000, //16
#GOGOEND
100200002202,
102200202202,
200200002202,
202201101111,
100101200101,
101201200202,
101111202122,
201010111010200000000000, //24
1000101210201010,
1011101011201010,
2020101210102020,
1022201022112020,
1011201210212010,
2211201210212010,
2212112211112211,
1000202220202020, //32
10012010,
2010002020021020,
1020102011002200,
1002102012002020,
1111200011110020,
1110102011011020,
1011012011001120,
500000000000000000000000000000000008000000000000, //40
42,
22,
7,
0008,
1000101010101001,
100000100000100000000100100000100000100000202020,
1110101110111111,
1, //48
#GOGOSTART
1110102011102020,
1022101220112022,
1110102011102020,
1000200011121010,
1110102011102020,
1022101122112210,
3000222210001022,
1444, //56
1011102010112020,
1110112011211020,
101010100000200000101010100000200200100100200100,
1000400010212000,
1000111110102011,
1010111110102220,
1111111120002220,
1000200012121010, //64
#GOGOEND
1000221010202220,
1020100010201011,
1020101110202222,
1000101022221010,
100000202020200000100100200000200000100100100100,
2021112021112020,
000000200200200000100100200000100000200020001000,
100020002000100200100200100000000000400000000000, //72
#GOGOSTART
1011102010112020,
1110112011211222,
101010100000200000101010100000200000200200200000,
3000400011212000, //76
#GOGOEND
2,
22,
12,
100010201110102010201020,
10022000,
10002002,
100022202020,
102020122212, //84
1000202210112020,
1020102010002011,
1010201210121022,
1020102010002222,
1010101210221012,
1212101011211222,
1011212221121222,
100100200100200200200100100020001000200020002000, //92
#MEASURE 1/4
#SCROLL 1
7,
#SCROLL 1.15
0,
#SCROLL 1.32
0,
#SCROLL 1.51
0,
#SCROLL 1.73
0,
#SCROLL 1.99
0,
#SCROLL 2.28
0,
#SCROLL 2.62
0, //100
#MEASURE 1/8
#SCROLL 3
0,
#SCROLL 3.11
0,
#SCROLL 3.22
0,
#SCROLL 3.34
0,
#SCROLL 3.46
0,
#SCROLL 3.59
0,
#SCROLL 3.72
0,
#SCROLL 3.86
0, //108
#MEASURE 1/16
#SCROLL 4
0,
#SCROLL 4.06
0,
#SCROLL 4.11
0,
#SCROLL 4.17
0,
#SCROLL 4.23
0,
#SCROLL 4.29
0,
#SCROLL 4.35
0,
#SCROLL 4.41
0, //116
#SCROLL 4.47
0,
#SCROLL 4.53
0,
#SCROLL 4.6
0,
#SCROLL 4.66
0,
#SCROLL 4.73
0,
#SCROLL 4.8
0,
#SCROLL 4.86
0,
#SCROLL 4.93
0, //124
#MEASURE 4/4
#SCROLL 5
8, //125
#END

COURSE:Oni
LEVEL:9
BALLOON:26,32
SCOREINIT:590,1770
SCOREDIFF:148
#START
3030201110102020,
11111020,
3030201110111011,
11211000,
3000201110111020,
3010101110001000,
10101111,
100100100000100100100000600000000000000008000000, //8
#GOGOSTART
1011102010102011,
12121222,
1020101110201020,
1022201022201020,
1011102010102211,
1000111000111010,
05000000,
000000000000000000000008000000000000000000000000, //16
#GOGOEND
200200002202,
202200002200,
200200002202,
202200100100,
100001200101,
1112,
100111200200,
111100400000, //24
10201212,
1010201110102020,
10101122,
1000202210202020,
11211121,
1000101011102020,
1110222011102220,
20202222, //32
1021,
2020002020022020,
11122020,
1002202020002000,
11102211,
1010100020022020,
11012020,
500000000000000000000000000000000008000000000000, //40
42,
22,
7,
0000000000008011,
10121112,
11121111,
1110101110101111,
1, //48
#GOGOSTART
1110102010102020,
1000202220002020,
1110102010102020,
1000200020222020,
1110102010102020,
1000201010112000,
3030001110001020,
1444, //56
1120102010202020,
1000200022202020,
2000112000112010,
20400440,
1110101020002020,
1020101122202020,
3000000040002220,
1110202011102020, //64
#GOGOEND
10111120,
12102211,
1000101010002220,
10112011,
10111211,
2000111000111010,
05000000,
000000000000000000000008000000000000000000000000, //72
#GOGOSTART
1120102010202020,
1000200022202020,
2000112000112010,
30400440, //76
#GOGOEND
2,
2,
12,
111111,
5,
0,
0,
000000000000000000000008000000000000000000000000, //84
1000201110102020,
1020102010000011,
1000201110111011,
1020102010000011,
1000101110001011,
1020102010001111,
11111111,
300300300111, //92
#MEASURE 1/4
#SCROLL 1
7,
#SCROLL 1.15
0,
#SCROLL 1.32
0,
#SCROLL 1.51
0,
#SCROLL 1.73
0,
#SCROLL 1.99
0,
#SCROLL 2.28
0,
#SCROLL 2.62
0, //100
#MEASURE 1/8
#SCROLL 3
0,
#SCROLL 3.11
0,
#SCROLL 3.22
0,
#SCROLL 3.34
0,
#SCROLL 3.46
0,
#SCROLL 3.59
0,
#SCROLL 3.72
0,
#SCROLL 3.86
0, //108
#MEASURE 1/16
#SCROLL 4
0,
#SCROLL 4.06
0,
#SCROLL 4.11
0,
#SCROLL 4.17
0,
#SCROLL 4.23
0,
#SCROLL 4.29
0,
#SCROLL 4.35
0,
#SCROLL 4.41
0, //116
#SCROLL 4.47
0,
#SCROLL 4.53
0,
#SCROLL 4.6
0,
#SCROLL 4.66
0,
#SCROLL 4.73
0,
#SCROLL 4.8
0,
#SCROLL 4.86
0,
#SCROLL 4.93
0, //124
#MEASURE 4/4
#SCROLL 5
8, //125
#END

COURSE:Hard
LEVEL:7
BALLOON:20,26
SCOREINIT:610,2480
SCOREDIFF:168
#START
33001000,
11101000,
33001000,
11101000,
3000001110000000,
3000001110000000,
1111,
100000100000100000100000600000000000000008000000, //8
#GOGOSTART
10121121,
10121222,
11101210,
12212210,
10121121,
10110111,
05000000,
000000000000000000000008000000000000000000000000, //16
#GOGOEND
200200002200,
200200002200,
200200002200,
21,
12,
1112,
1122,
111100400000, //24
10201210,
11201120,
10101120,
10221022,
10101110,
10111020,
10001001,
20202222, //32
1021,
20022020,
11102020,
1222,
10002011,
10102002,
1122,
500000000000000000000000000000000008000000000000, //40
42,
22,
7,
0008,
10101110,
11101111,
1000100010001111,
1, //48
#GOGOSTART
11121122,
10200022,
11121122,
10202022,
11121122,
10211120,
33011012,
1444, //56
12121222,
10202222,
20110110,
20400440,
10112020,
11102020,
34,
1212, //64
#GOGOEND
10111120,
12102211,
10111022,
10112011,
10111211,
20110111,
05000000,
000000000000000000000008000000000000000000000000, //72
#GOGOSTART
12121222,
10202222,
20110110,
30400440, //76
#GOGOEND
2,
2,
12,
111111,
5,
0,
0,
000000000000000000000008000000000000000000000000, //84
10211122,
1020102010000011,
10211111,
12121001,
10111011,
12121010,
10101111,
3330, //92
#MEASURE 1/4
#SCROLL 1
7,
#SCROLL 1.15
0,
#SCROLL 1.32
0,
#SCROLL 1.51
0,
#SCROLL 1.73
0,
#SCROLL 1.99
0,
#SCROLL 2.28
0,
#SCROLL 2.62
0, //100
#MEASURE 1/8
#SCROLL 3
0,
#SCROLL 3.11
0,
#SCROLL 3.22
0,
#SCROLL 3.34
0,
#SCROLL 3.46
0,
#SCROLL 3.59
0,
#SCROLL 3.72
0,
#SCROLL 3.86
0, //108
#MEASURE 1/16
#SCROLL 4
0,
#SCROLL 4.06
0,
#SCROLL 4.11
0,
#SCROLL 4.17
0,
#SCROLL 4.23
0,
#SCROLL 4.29
0,
#SCROLL 4.35
0,
#SCROLL 4.41
0, //116
#SCROLL 4.47
0,
#SCROLL 4.53
0,
#SCROLL 4.6
0,
#SCROLL 4.66
0,
#SCROLL 4.73
0,
#SCROLL 4.8
0,
#SCROLL 4.86
0,
#SCROLL 4.93
0, //124
#MEASURE 4/4
#SCROLL 5
8, //125
#END

COURSE:Normal
LEVEL:6
BALLOON:12,18
SCOREINIT:690,3630
SCOREDIFF:205
#START
3,
11,
3,
11,
3,
31,
1111,
11103000, //8
#GOGOSTART
10101011,
10101110,
11101010,
10111010,
10101022,
20020022,
05000000,
000000000000000000000008000000000000000000000000, //16
#GOGOEND
2200,
2200,
2200,
22,
12,
1112,
11,
14, //24
1210,
1212,
10111000,
1212,
10111050,
000000000000000000000008000000000000000000000000,
11,
20202220, //32
1021,
20020020,
0120,
1222,
1021,
11,
1120,
11, //40
42,
22,
7,
0008,
10101011,
10101110,
10101111,
1, //48
#GOGOSTART
10111011,
1212,
10111011,
1202,
10111011,
1212,
600000000000000000000000000000000000000000000008,
0, //56
11101110,
1202,
20110110,
2400,
1122,
1122,
34,
1212, //64
#GOGOEND
10011000,
11002001,
10011000,
1120,
10111022,
20020022,
05000000,
000000000000000000000008000000000000000000000000, //72
#GOGOSTART
11101110,
10202220,
20110110,
3400, //76
#GOGOEND
2,
2,
12,
11,
5,
0,
0,
000000000000000000000008000000000000000000000000, //84
10011110,
1120,
10011110,
1120,
10011020,
11111020,
10101110,
3330, //92
#MEASURE 1/4
#SCROLL 1
7,
#SCROLL 1.15
0,
#SCROLL 1.32
0,
#SCROLL 1.51
0,
#SCROLL 1.73
0,
#SCROLL 1.99
0,
#SCROLL 2.28
0,
#SCROLL 2.62
0, //100
#MEASURE 1/8
#SCROLL 3
0,
#SCROLL 3.11
0,
#SCROLL 3.22
0,
#SCROLL 3.34
0,
#SCROLL 3.46
0,
#SCROLL 3.59
0,
#SCROLL 3.72
0,
#SCROLL 3.86
0, //108
#MEASURE 1/16
#SCROLL 4
0,
#SCROLL 4.06
0,
#SCROLL 4.11
0,
#SCROLL 4.17
0,
#SCROLL 4.23
0,
#SCROLL 4.29
0,
#SCROLL 4.35
0,
#SCROLL 4.41
0, //116
#SCROLL 4.47
0,
#SCROLL 4.53
0,
#SCROLL 4.6
0,
#SCROLL 4.66
0,
#SCROLL 4.73
0,
#SCROLL 4.8
0,
#SCROLL 4.86
0,
#SCROLL 4.93
0, //124
#MEASURE 4/4
#SCROLL 5
8, //125
#END

COURSE:Easy
LEVEL:4
BALLOON:10,14
SCOREINIT:660,6440
SCOREDIFF:238
#START
3,
0,
3,
0,
3,
3,
1111,
1130, //8
#GOGOSTART
11,
1011,
11,
11,
11,
20020020,
05000000,
000000000000000000000008000000000000000000000000, //16
#GOGOEND
0,
0,
0,
0,
12,
11,
11,
1, //24
11,
1110,
11,
1110,
1115,
000000000000000000000008000000000000000000000000,
11,
2220, //32
1,
20020020,
0,
1,
1,
11,
1,
11, //40
4,
2,
7,
0008,
11,
11,
1111,
1, //48
#GOGOSTART
1111,
2,
1111,
1200,
1111,
1120,
600000000000000000000000000000000000000000000008,
0, //56
1111,
2,
20020020,
2400,
11,
1110,
34,
1110, //64
#GOGOEND
11,
1,
11,
1,
22,
20020020,
05000000,
000000000000000000000008000000000000000000000000, //72
#GOGOSTART
1111,
2,
20020020,
4400, //76
#GOGOEND
2,
2,
12,
11,
5,
0,
0,
000000000000000000000008000000000000000000000000, //84
1,
12,
1,
12,
11,
11,
1111,
3330, //92
#MEASURE 1/4
#SCROLL 1
7,
#SCROLL 1.15
0,
#SCROLL 1.32
0,
#SCROLL 1.51
0,
#SCROLL 1.73
0,
#SCROLL 1.99
0,
#SCROLL 2.28
0,
#SCROLL 2.62
0, //100
#MEASURE 1/8
#SCROLL 3
0,
#SCROLL 3.11
0,
#SCROLL 3.22
0,
#SCROLL 3.34
0,
#SCROLL 3.46
0,
#SCROLL 3.59
0,
#SCROLL 3.72
0,
#SCROLL 3.86
0, //108
#MEASURE 1/16
#SCROLL 4
0,
#SCROLL 4.06
0,
#SCROLL 4.11
0,
#SCROLL 4.17
0,
#SCROLL 4.23
0,
#SCROLL 4.29
0,
#SCROLL 4.35
0,
#SCROLL 4.41
0, //116
#SCROLL 4.47
0,
#SCROLL 4.53
0,
#SCROLL 4.6
0,
#SCROLL 4.66
0,
#SCROLL 4.73
0,
#SCROLL 4.8
0,
#SCROLL 4.86
0,
#SCROLL 4.93
0, //124
#MEASURE 4/4
#SCROLL 5
8, //125
#END
