//TJADB Project
TITLE:phony
TITLEJA:フォニイ
SUBTITLE:--tsumiki feat. KAFU
SUBTITLEJA:ツミキ feat. 音楽的同位体 可不(KAFU)
WAVE:phony.ogg
BPM:170
OFFSET:-1.509
DEMOSTART:61.862 //shinuchi:
6130/3760/2150/1590/1040

COURSE:Edit
LEVEL:9
BALLOON:
SCOREINIT:350,1090
SCOREDIFF:85
#START
1002202020022020,
1022102022002000,
1002202220202020,
1022201210222020,
1002202020022020,
1022102022002000,
1002202220201000,
3333,
3333,
33333333,
#SCROLL 1.5
1010222210102000, //11
#SCROLL 1
1000202011012020,
1020202211221022,
1022201121012020,
1022101120404000,
1000202011012012,
1020201121112020,
1022101121012020,
1022102220202010, //19
1002101010021010,
100000200200100000200000100000200000102020200000,
100000000200100000100000100000100000102020100000,
1022202010101020,
1022201011021010,
100000100000200000100000102020200000102020200000,
100000200200100000100200100000100000102020100000,
1022202010102222, //27
1010222010112110,
100000100000200000100100100000000000202020100000,
1010222010112112,
200000100000202020200000100000200100200000100000,
1010222010112110,
100000100000200000100100100000000000202020100000,
1010222010112110,
000100222100100000200000, //35
#SCROLL 1.5
1000101010111010,
1000111140001111,
4000101110111010,
0010101111212000,
2000201020222020,
1000222230002222,
3000101120111030,
03333020, //43
#SCROLL 1
#GOGOSTART
1000201110112020,
1022102210202210,
1120201110112021,
1010201011112210,
1011202011102210,
1120201122221000,
1022202011111040,
1040004010401111, //51
1000201110112020,
1022102210202212,
1010221210102212,
1011222012221010,
1011201110202020,
1022102220201020,
3333,
3000200020202222, //59
#GOGOEND
1022102110221202,
1122122212101022,
1222112210121212,
03333020,
2000200220202020,
2220222010002022,
1000102210222010,
0012202220202000, //67
2000200220202020,
2220122020001000,
1000102212202010,
0012202220102020,
2000200220202020,
2220222010001220,
1000122010001220,
1000222012201010,
1011201110112020,
1010101011111111, //77
2000
#GOGOSTART
400010112020,
1022102210202210,
1122201110112021,
1111221011112220,
1011202012102210,
1210201202102212,
100000200200200000200200100100200200200000101010,
100000400000000000101010100000400000100100100100, //85
1000201110112020,
1022102210202212,
1111221211112212,
1111202212221010,
1011201110221222,
1011222211221020,
1011201110222050,
000000000000000000000000000000000000000008000000, //93
#GOGOEND
20222020,
2222,
2, //96
#END

COURSE:Oni
LEVEL:7
BALLOON:21,21,21
SCOREINIT:530,1710
SCOREDIFF:125
#START
2220,
2022,
20002220,
22,
2220,
2022,
20002220,
3333,
3333,
33333333,
600000000000000000000000000000000000000008000000, //11
1000202010021020,
1020101120101000,
1000201020021020,
1020101120202000,
1000202010021020,
1020101120101000,
1000201020021020,
1020102220002010, //19
1000201010002011,
1211,
1000201110102020,
10212211,
1000201010002011,
10211012,
1000201110202010,
10212122, //27
1011201010112010,
11201021,
1011202010112020,
11201221,
1011201010112010,
12201021,
1011202010112020,
01211020, //35
1000102010111020,
10102110,
2000101120201010,
0010102210202000,
1000102010111020,
10201220,
1000101120001020,
01211020, //43
#GOGOSTART
3011202010112010,
1010202010002220,
11250000,
000000000008000000000000100000100100200000100000,
1110102010002220,
1010200022102000,
6,
000000000008000000000000000000000000200000200000, //51
3011202010112010,
11221070,
0,
08201122,
1011201020002020,
1011201020112020,
1000200020002022,
1000200020212020, //59
#GOGOEND
1000101110110101,
0022020202001010,
0220202010110011,
03333020,
10202221,
22201020,
10202121,
2212, //67
10202221,
22201020,
10202021,
20202122,
10202221,
22202070,
0,
08202122,
1011201010112010,
600000000000000000000008000000000000200200200000, //77
1000
#GOGOSTART
400010112010,
1010202010002220,
11250000,
000000000008000000000000100000100100200000100000,
1110202010002220,
1010200022102000,
6,
000000000008000000000000000000000000200000200000, //85
3011202010112010,
11221070,
0,
08201122,
1011201020002020,
1011201120112220,
11221121,
1010222010112020, //93
#GOGOEND
20222020,
2222,
2, //96
#END

COURSE:Hard
LEVEL:5
BALLOON:17,17,13,17
SCOREINIT:520,2370
SCOREDIFF:130
#START
2220,
2022,
2022,
22,
2220,
2022,
2022,
3333,
3333,
33333333,
600000000000000000000000000000000000000008000000, //11
1000001010010010,
01121020,
1000001020010020,
01121020,
1000001010010010,
01121020,
1000001020010020,
01112021, //19
10201011,
1211,
10201110,
10012211,
10211011,
1211,
10211220,
10012122, //27
11201121,
11201001,
11201121,
11202001,
11201122,
12201001,
11201121,
01201020, //35
10101112,
1121,
20112011,
01121020,
10101112,
1212,
10112012,
01211020, //43
#GOGOSTART
31201122,
11201021,
10150000,
000000000008000000000000100000100000200000100000,
10111022,
11102020,
6,
000000000008000000000000000000000000200000000000, //51
31101112,
11202070,
0,
08201122,
1122,
1122,
1222,
10202220, //59
#GOGOEND
10111021,
10201120,
10211021,
23333020,
20202220,
22202000,
10000101,
0012, //67
20202220,
22202000,
10000001,
00000120,
20202220,
22202070,
0,
08202220,
900000000000000000000000000000000009000000000008,
0, //77
00
#GOGOSTART
301122,
11221021,
12150000,
000000000008000000000000100000100000200000100000,
10111022,
11102220,
6,
000000000008000000000000000000000000200000000000, //85
31201122,
11222070,
0,
08201122,
11102022,
11102022,
10202122,
10201111, //93
#GOGOEND
2220,
2222,
2, //96
#END

COURSE:Normal
LEVEL:4
BALLOON:5,11,4,11,9,11
SCOREINIT:680,4300
SCOREDIFF:188
#START
22,
2022,
22,
2,
22,
2022,
22,
3333,
3333,
33303330,
600000000000000000000000000000000000000008000000, //11
10001001,
0110,
20002002,
0110,
10001001,
0110,
20002002,
02, //19
1011,
1011,
11,
12,
1011,
1011,
11,
22, //27
1110,
11101000,
1110,
22202000,
1110,
11101000,
10101007,
08, //35
10001110,
12,
20001011,
0220,
10001110,
12,
20001011,
0330, //43
#GOGOSTART
30101110,
1110,
5,
000000000008000000000000000000000000000000000000,
10111010,
11102020,
6,
000000000008000000000000000000000000000000000000, //51
30101110,
2227,
0,
08000000,
1110,
1111,
2,
00202220, //59
#GOGOEND
11,
10101110,
11,
07008000,
2220,
22,
20000202,
02, //67
2220,
22,
20000002,
00000200,
2220,
2027,
0,
08000000,
900000000000000000000000000000000009000000000008,
0, //77
00
#GOGOSTART
301110,
1110,
10150000,
000000000008000000000000000000000000000000000000,
10111010,
11102020,
6,
000000000008000000000000000000000000000000000000, //85
30101110,
2227,
0,
08000000,
1110,
1122,
1,
00101110, //93
#GOGOEND
22,
2220,
2, //96
#END

COURSE:Easy
LEVEL:3
BALLOON:4,4,9,3,9,7,9
SCOREINIT:690,7030
SCOREDIFF:213
#START
22,
2,
2,
2,
22,
2,
2,
33,
33,
3333,
600000000000000000000000000008000000000000000000, //11
11,
0110,
11,
0110,
11,
0110,
11,
02, //19
11,
1,
1,
2,
11,
1,
1,
1, //27
1110,
1,
1110,
2,
1110,
1,
10101007,
08, //35
1011,
11,
11,
02,
1011,
11,
10001007,
08, //43
#GOGOSTART
3110,
1110,
5,
000000000008000000000000000000000000000000000000,
1110,
12,
6,
000000000008000000000000000000000000000000000000, //51
3110,
1117,
0,
08000000,
1110,
1110,
2,
01, //59
#GOGOEND
11,
0110,
11,
07008000,
22,
2,
2,
0, //67
22,
2,
2,
0,
22,
2007,
0,
08000000,
900000000000000000000000000000000009000000000008,
0, //77
0
#GOGOSTART
310,
1110,
5,
000000000008000000000000000000000000000000000000,
1110,
12,
6,
000000000008000000000000000000000000000000000000, //85
31,
1117,
0,
08000000,
1110,
1110,
2,
01, //93
#GOGOEND
2,
22,
2, //96
#END
