//TJADB Project
TITLE:Zankyou Sanka
TITLEJA:残響散歌
SUBTITLE:--
SUBTITLEJA:
BPM:171
WAVE:Zankyou Sanka.ogg
OFFSET:-0.718
DEMOSTART:48.06 //Shinuchi:
8920/5200/3260/2110

COURSE:Oni
LEVEL:7
BALLOON:
SCOREINIT:650,2290
SCOREDIFF:183
#START
#MEASURE 3/4
100220100220,
100220100220,
500000000000000000000000000008000000,
#MEASURE 4/4
3000201110200010,
0020001000200011,
1002001000200011,
11223030,
3000201110102010,
0010201000102011,
1010201000102011,
1010201022100010, //11
3000201110102010,
0010201000102011,
11210103,
000000300000000000300000000000600000000008000000,
1000200011102010,
1010201010002220,
1000200011102010,
11201120, //19
1010201022200010,
11211020,
1110200011102020,
1000101022102000,
11212012,
1010200010222010,
11212012,
1010200010222010, //27
10221022,
10221210,
1000201010002011,
11012120,
1110200011102000,
1110400011104000,
3002203002203030,
03332121, //35
#GOGOSTART
1000201110102010,
1110202010222010,
1000201110102000,
1210201012102000,
1110202011102020,
1010201010222000,
3333,
33032121, //43
1000201110102010,
1110201010222010,
1000201110102000,
1210201012102000,
1110202011102020,
1010201010222000,
1110202011102020,
1021101010201000,
3333,
3044, //53
#GOGOEND
3000201110102010,
0010201000102011,
1010201000102011,
1010201022100010,
3000201110102011,
1010201020102011,
11212103,
0030003000111030,
0,
0, //63
#END

COURSE:Hard
LEVEL:5
BALLOON:9,11,6
SCOREINIT:790,3740
SCOREDIFF:233
#START
#MEASURE 3/4
12,
22,
500000000000000000000000000008000000,
#MEASURE 4/4
30010201,
02020102,
1001002000200020,
01203030,
30210121,
01210120,
11210120,
11210100, //11
30210121,
01210120,
11210103,
03030300,
10201110,
1112,
10201110,
11201120, //19
10201101,
1112,
10201011,
70000008,
11101012,
1110,
11101012,
10101002, //27
10221022,
10221010,
10211021,
500000000000000008000000000000000000000000000000,
11201120,
33403340,
9009,
8, //35
#GOGOSTART
10201121,
10201001,
10211020,
10211000,
10211021,
11211000,
3333,
7082, //43
10201121,
10201001,
10211020,
10211000,
10211021,
11211000,
10211021,
600000000000000000000000000000000000000008000000,
3333,
3044, //53
#GOGOEND
30210121,
01210120,
11210120,
11210100,
30210121,
01210120,
11210103,
03030303,
0,
0, //63
#END

COURSE:Normal
LEVEL:4
BALLOON:8,7,8,4,8
SCOREINIT:920,5980
SCOREDIFF:308
#START
#MEASURE 3/4
2,
2,
500000000000000000000000000008000000,
#MEASURE 4/4
30020002,
00020000,
20020002,
0033,
30010001,
00010100,
10010100,
10010100, //11
30010001,
00010100,
10010107,
00000008,
11,
1110,
11,
1211, //19
10201100,
1112,
10201011,
70000008,
12,
1120,
12,
1120, //27
1212,
1212,
10011001,
10011010,
500000000000000000000000000000000000000008000000,
600000000000000000000000000000000000000008000000,
9009,
8, //35
#GOGOSTART
10201011,
10201001,
1211,
10011000,
10111010,
10111000,
3333,
7082, //43
10201011,
10201001,
1211,
10011000,
10111010,
10111000,
10111010,
600000000000000000000000000000000000000008000000,
3333,
3044, //53
#GOGOEND
30010001,
00010100,
10010100,
10010100,
30010001,
00010100,
10010109,
00000908,
0,
0, //63
#END

COURSE:Easy
LEVEL:3
BALLOON:5,4,6,3,6
SCOREINIT:960,11070
SCOREDIFF:600
#START
#MEASURE 3/4
0,
0,
0,
#MEASURE 4/4
3,
0,
2,
0033,
30000001,
0,
10010000,
10010000, //11
30000001,
0,
10010007,
000000000000000000000000000000080000000000000000,
1,
11,
1,
1011, //19
11,
11,
1011,
70000800,
1,
12,
1,
12, //27
12,
12,
11,
1,
500000000000000000000000000008000000000000000000,
600000000000000000000000000008000000000000000000,
9009,
8, //35
#GOGOSTART
11,
1110,
11,
1,
12,
1110,
3333,
78, //43
11,
1110,
11,
1,
12,
1110,
12,
600000000000000000000000000008000000000000000000,
3333,
3044, //53
#GOGOEND
30000001,
0,
10010000,
10010000,
30000001,
0,
10010009,
00000908,
0,
0, //63
#END
