//TJADB Project
TITLE:Smile & Go!!
TITLEJA:Smile & Go!!
SUBTITLE:--Shiranui Flare
SUBTITLEJA:不知火フレア
BPM:160
WAVE:Smile and Go!!.ogg
OFFSET:-1.591
DEMOSTART:57.966 //Shinuchi:
8930/6060/3520/1890

COURSE:Oni
LEVEL:7
BALLOON:25,25,13
SCOREINIT:570,2000
SCOREDIFF:150
#START
10202021,
1221,
500000000000000000000000000000000000000000000008,
0000000020202220, //4
#GOGOSTART
11211121,
1010201010222011,
11211121,
1010201010222010, //8
1010221110102011,
1010201110102211,
1010221122111111,
1000000020112202, //12
#GOGOEND
1020201020220020,
10222012,
1020102010201120,
1020102110201120, //16
1020102010201120,
1020102010221070,
0,
0000000080112210, //20
1020201020020020,
1022202010002020,
1020102010201120,
1020102110201122, //24
11201120,
11210227,
0,
0082, //28
20022020,
20022022,
2000202020002022,
1021012000221110, //32
1011102011102120,
1101102011102010,
111111222222,
1000001010020020,
70000008,
4004004000101020, //38
#GOGOSTART
3001201020101120,
1010201010221010,
3001201020101120,
1010201010112011, //42
1002201010222010,
1002201010222011,
1020102010201111,
1010202022111010, //46
3001201020101120,
1010201010221010,
3001201020101120,
1002201020101122, //50
1010221120201120,
1020101110112022,
1020102010102211,
1011201120112220,
600000000000000000000000000000000000000008000000,
3003003030222000, //56
11211121,
1011201010222011,
11211121,
1011201010222010, //60
11600000,
000000000000000000000000000008000000200200100100,
1010221122111111,
1000000020112220, //64
#GOGOEND
3,
0,
0, //67
#END

COURSE:Hard
LEVEL:4
BALLOON:20,20,10,12
SCOREINIT:770,3960
SCOREDIFF:213
#START
10202021,
1221,
500000000000000000000000000000000000000000000008,
0022, //4
#GOGOSTART
1212,
10201220,
1212,
10201220,
1600,
000000000008000000000000000000000000200000000000,
11221122,
12, //12
#GOGOEND
1000202020020020,
10222010,
10211020,
10212110,
10211011,
01010107,
0,
08, //20
1000202020020020,
10222010,
10211020,
10212110,
1212,
10210107,
0,
08, //28
20022000,
20022000,
2222,
1001001000000000,
10101220,
10101220,
500000000000000000000000000000000000000000000008,
0000001010010010,
70000008,
4004004000101000, //38
#GOGOSTART
3003003000102010,
10120110,
3003003000102010,
10120112,
1001001010202010,
1001001010202010,
9009,
8, //46
3003003000102010,
10120110,
3003003000102010,
1001001020001000,
10202112,
12110011,
10022001,
1122,
600000000000000000000000000000000000000008000000,
3003003030002000, //56
1212,
10201220,
1212,
10201220,
1600,
000000000008000000000000000000000000200000000000,
11221122,
12, //64
#GOGOEND
3,
0,
0, //67
#END

COURSE:Normal
LEVEL:4
BALLOON:14,14,10,9
SCOREINIT:1040,6780
SCOREDIFF:375
#START
10000001,
1001,
500000000000000000000000000000000000000000000008,
0022, //4
#GOGOSTART
0202,
00200220,
0202,
00200220,
0600,
000000000008000000000000000000000000000000000000,
1111,
22, //12
#GOGOEND
1,
1021,
10011000,
10022020,
10011011,
01010107,
0,
08, //20
1,
1021,
10011000,
10022020,
1212,
10110107,
0,
8, //28
22,
22,
22,
1001001000000000,
10001110,
10001110,
500000000000000000000000000000000000000000000008,
01,
7,
000008000000000000000000000000000000000000000000, //38
#GOGOSTART
30030020,
10110010,
30030020,
10110010,
10011000,
20022000,
9009,
8, //44
30030020,
10110010,
30030020,
10011010,
1221,
10110010,
10011000,
1111,
600000000000000000000000000000000000000008000000,
33, //56
0202,
00200220,
0202,
00200220,
0600,
000000000008000000000000000000000000000000000000,
1111,
22, //64
#GOGOEND
3,
0,
0, //67
#END

COURSE:Easy
LEVEL:2
BALLOON:11,11,8,7
SCOREINIT:890,10330
SCOREDIFF:488
#START
1,
1001,
500000000000000000000000000000000000000000000008,
0022, //4
#GOGOSTART
0202,
0202,
0202,
0202,
0600,
000000000008000000000000000000000000000000000000,
1110,
22, //12
#GOGOEND
1,
1001,
11,
1011,
10001001,
00010007,
0,
08, //20
1,
1001,
1011,
1011,
1202,
00200007,
0,
08, //28
2,
2,
2,
10010000,
1,
1,
500000000000000000000000000000000000000000000008,
01,
7,
000008000000000000000000000000000000000000000000, //38
#GOGOSTART
30030000,
10010000,
30030000,
10010000,
12,
12,
9009,
8, //46
30030000,
10010000,
30030000,
11,
12,
1001,
11,
1110,
600000000000000000000000000008000000000000000000,
33, //56
0202,
0202,
0202,
0202,
0600,
000000000008000000000000000000000000000000000000,
1110,
22, //64
#GOGOEND
3,
0,
0, //67
#END
