//TJADB Project
TITLE:Homenobi
TITLEJA:ほめのび
SUBTITLE:--Shirogane Noel
SUBTITLEJA:白銀ノエル
BPM:112
WAVE:Homenobi.ogg
OFFSET:-1.972
DEMOSTART:51.789 //Shinuchi:
13650/8170/5430/3030

COURSE:Oni
LEVEL:4
BALLOON:24,15
SCOREINIT:830,3360
SCOREDIFF:238
#START
200000200200200202000200,
22220000,
200000200200200202000200,
22220000,
100000100100100101000000,
100000100100100101000000,
10111120,
#BPMCHANGE 112.33
#SCROLL 0.99
3,
#BPMCHANGE 112
#SCROLL 1
0, //9
10201110,
10201111,
02202202,
30303001,
1110222010002020,
1110222010002020,
01101111,
3,
2022000000000010, //18
11133011,
10202021,
11133011,
10202021,
7,
800000100101100100200000, //24
#GOGOSTART
100000100101100100200000,
100000100101100100200200,
5,
000000000008000000000000100000100000200000000000,
100000100101100100200000,
100000100101100100200200,
11112020,
33333040, //32
#GOGOEND
300000200000200000300020000020000200200000000000,
300000200000200000300020000020000200200000000000,
300000200000200000300020000020000200200000000000,
1212,
1010,
1, //38
10111120,
10111120,
11112121,
20111120,
10111120,
10111120,
11212020,
40111120, //46
#GOGOSTART
100000100101100100200000,
100000100101100100200200,
5,
000000000008000000000000100000100000200000000000,
100000100101100100200000,
100000100101100100200200,
11212020,
300300300300300111100700,
08, //55
#GOGOEND
0,
#SCROLL 0.89
0,
#SCROLL 0.79
0,
#SCROLL 0.71
0,
#BARLINEOFF
#SCROLL 1
0, //60
#END

COURSE:Hard
LEVEL:2
BALLOON:20,20,40
SCOREINIT:1090,6330
SCOREDIFF:388
#START
22,
20220000,
22,
20220000,
10111000,
10111000,
10111010,
#BPMCHANGE 112.33
#SCROLL 0.99
3,
#BPMCHANGE 112
#SCROLL 1
0, //9
10201110,
10201110,
02202200,
3330,
10201011,
10201011,
01103030,
3,
2, //18
11103000,
0222,
11103000,
0222,
7,
80111020, //24
#GOGOSTART
10111020,
10111020,
5,
000000000008000000000000100000000000200000000000,
10111020,
1133,
9009,
8, //32
#GOGOEND
30230000,
30230000,
30230000,
2222,
22,
2, //38
1022,
1022,
11,
2,
1022,
1022,
1011,
40111020, //44
#GOGOSTART
10111020,
10111020,
5,
000000000008000000000000100000000000200000000000,
10111020,
1133,
9,
09,
8, //55
#GOGOEND
0,
#SCROLL 0.89
0,
#SCROLL 0.79
0,
#SCROLL 0.71
0,
#BARLINEOFF
#SCROLL 1
0, //60
#END

COURSE:Normal
LEVEL:1
BALLOON:12,12,24
SCOREINIT:1070,9910
SCOREDIFF:613
#START
2,
0,
2,
0,
11,
11,
1011,
#BPMCHANGE 112.33 //Verified on
NS2: Only Normal chart does not have the HS0.99
3,
#BPMCHANGE 112
0, //9
1110,
1110,
11,
3330,
1110,
1110,
1011,
3,
2, //18
13,
0111,
13,
0111,
7,
8012, //24
#GOGOSTART
1012,
1012,
5,
000000000008000000000000100000000000200000000000,
1012,
1033,
9009,
8, //32
#GOGOEND
30030000,
30030000,
30030000,
22,
22,
2, //38
12,
12,
11,
2,
12,
12,
1011,
4012, //46
#GOGOSTART
1012,
1012,
5,
000000000008000000000000100000000000200000000000,
1012,
1033,
9,
09,
8, //55
#GOGOEND
0,
#SCROLL 0.89
0,
#SCROLL 0.79
0,
#SCROLL 0.71
0,
#BARLINEOFF
#SCROLL 1
0,
#END

COURSE:Easy
LEVEL:1
BALLOON:8,8,16
SCOREINIT:1310,16560
SCOREDIFF:1165
#START
0,
0,
0,
0,
1,
1,
11,
#BPMCHANGE 112.33
#SCROLL 0.99
3,
#BPMCHANGE 112
#SCROLL 1
0, //9
1,
1,
11,
3,
1,
1,
11,
3,
2, //18
1,
01,
1,
01,
7,
8, //24
#GOGOSTART
1011,
1011,
5,
000000000008000000000000000000000000000000000000,
1011,
1033,
9009,
8, //32
#GOGOEND
3,
3,
3,
11,
1,
0, //38
1,
1,
11,
2,
1,
1,
11,
4, //46
#GOGOSTART
1011,
1011,
5,
000000000008000000000000000000000000000000000000,
1011,
1033,
9,
09,
8, //55
#GOGOEND
0,
#SCROLL 0.89
0,
#SCROLL 0.79
0,
#SCROLL 0.71
0,
#BARLINEOFF
#SCROLL 1
0, //60
#END
