TITLE:Rokka no Mai
TITLEJA:六華の舞
SUBTITLE:--Penoreri
SUBTITLEJA:ぺのれり
BPM:244
WAVE:Rokka no Mai.ogg
OFFSET:-2.788
DEMOSTART:53.092

COURSE:Oni
LEVEL:10
BALLOON:35
SCOREINIT:1410
SCOREDIFF:0
#START
#MEASURE 5/4
#SCROLL 0.5
700000000000000000000000000000000000000000000000000000000000,
000000000000000000000000000000000000000000000000000000000000,
000000000000000000000000000800000000000000000000000000000000,
000000000000000000000000000000000000000000000000000000200200,
#MEASURE 6/4
200000000000200000200000000000200000200000000000200000000000200000000000,
200000000000200000200000000000200000200000000000200000000000200000100100,
#MEASURE 5/4
100000000000200000100000000000200000100000200000100000000000,
100000000000200000100000000000200000100000200000100000200000,
#MEASURE 6/4
100000000000200000100000000000200000100000200000100000200000200000000000,
100000000000200000100000000000200000100000200000100000200000100100100100,
#MEASURE 5/4
200000000000200000000000200000000000100000200000200000000000,
200000000000100000200000200200200200100100100100100100100000,
#BPMCHANGE 240
#MEASURE 6/4
100000100000000000300000000000200000200000200000200000200000200000200000,
#BPMCHANGE 236
100000000000000000200000000000000000100000000000200000000000200000000000,
#BPMCHANGE 240
100000000000000000000000200000000000200000000000000000000000000000000000,
100000000000000000000000000000000000200000000000000000000000000000000000,
100000000000000000000000200000000000200000000000000000000000000000000000,
100000000000000000000000000000000000200000000000000000000000000000000000,
100000000000100000100000200000200200200000000000200000000000200000000000,
100000000000100000000000200000000000100000000000200000000000200000000000,
100000000000100000200000200000100000200020002000200020002000200020000000,
300000000000300000000000000000000000300000000000300000000000000000000000,
100000000000200000000000200000000000100000000000200000000000200000000000,
100000000000200000100000000000100100100000000000200000000000200000000000,
100000000000200000100000200000200000200000200000100100100100100100100100,
100000000000200000000000200200200000200000000000100100100100100100100100,
100000000000200010001000200010001000200000000000200200200000200000000000,
100000000000200200200000200000200000500000000000000000000000080000000000,
100000100000000000300000000000000000100000002000100010001000200010001000,
200000000000200000000000200020002000100000000000100010001000200000000000,
100000100000000000400000000000100000100000100000200000100000100000200000,
200000000000100000200000100000000000200000000000100010002000200000000000,
100000000000200000100000100000000000200000000000100000200000200200200000,
100000000000200000100000100000000000200000100000200000200000100000100100,
#BPMCHANGE 236
200000100000100000200000100000100000200000100000200000100000200000200200,
#BPMCHANGE 232
200000000000000000000000000000000000100000000000100100100000100000100000,
#BPMCHANGE 240
#SCROLL 0.75
#GOGOSTART
100000000000100000200000000000200000100000000000100000000000200000000000,
100000000000100100100000100000000000200200200000100000000000200000000000,
100000000000100000200000100000200000100100100000200000200000200000000000,
100000000000200020002000200020002000100010001000100010001000100000000000,
100000000000100010002000200000000000100000000000100000000000200000000000,
100000000000200000100000100000000000200200200000200000000000100000000000,
400000000000400000000000200010001000200000000000400000000000100020002000,
100000000000200020001000100000000000100000100100200000200000100000100000,
100000000000100000200000000000200000100000000000100000000000200000000000,
100000000000100100100000200000000000200200200000100000100000200000200000,
100000000000100000200000100000200000100100100000200000200000200000200000,
100000000000200020002000200020002000100010001000100010001000100000000000,
100000000000100000200000200000000000100000000000100200100000200000100000,
100000000000200000100000100000000000100000000000200200200000200000200000,
100000000000200000000000100020002000100020002000100000100100200020002000,
100000000000100020002000100000000000100000000000100010001000200020002000,
100000000000200200200000200000000000100000000000100000000000200000000000,
100000000000200020002000100020002000200020002000100020002000200020001000,
#BPMCHANGE 236
#SCROLL 1
400000000000000000300000000000000000400000000000000000300000000000000000,
#BPMCHANGE 240
#SCROLL 0.5
#GOGOEND
100000000000100000000000100020002000100000000000100000000000100010002000,
200000000000200000000000200010001000200000000000200000000000200020001000,
100000000000000000200000000000200000200000000000200000000000200000000000,
100000200000000000200000000000200000200000000000200000000000200000000000,
100000200000200000100000200000100000200000100000100000200000100000100000,
#BPMCHANGE 230
200000000000000000000000000000000000100000000000100000000000100000000000,
#BPMCHANGE 234
100000000000000000000000000000000000200000000000000000000000000000000000,
100000000000100000000000200000000000200000000000000000000000000000000000,
100000000000000000000000000000000000200000000000000000000000000000000000,
100000000000100000000000200000000000200000000000200000000000200000000000,
200000000000000000000000000000000000200000000000000000000000000000200200,
200000000000000000000000000000000000200000000000000000000000000000000000,
300000000000300000000000100020002000100000000000300000000000200010001000,
200000000000200000100000200000200000
#BPMCHANGE 240
100000200000200000100000100000100000,
#SCROLL 0.75
#GOGOSTART
100000000000100000200000000000200000100000000000100000000000200000000000,
100000000000100100100000200000000000200200200000100000100000200000200000,
100000000000100000200000100000200000100100100000200000200000200000200000,
100000000000200020002000200020002000100010001000100010001000100000000000,
100000000000100000200000200000000000100000000000100200100000200000100000,
100000000000200000100000100000000000100000000000200200200000200000200000,
100000000000202000000000100020002000100020002000100000100100200020002000,
100000000000100000000000200000000000100000000000100010001000200020002000,
100000000000200200200000200000000000100000000000100000000000200000000000,
100000000000200020002000100020002000200020002000100020002000200020001000,
#SCROLL 1
400000000000000000300000000000000000400000000000000000300000000000000000,
400000000000000000300000000000000000400000000000000000300000000000000000,
#SCROLL 0.5
#GOGOEND
200000000000200000200000000000200000200000000000200000000000200000000000,
200000000000200000200000000000200000200000000000200000000000200000000000,
200000000000200000200000000000200000200000000000200000000000200000100000,
#BPMCHANGE 230
200000000000000000000000000000000000
#GOGOSTART
#SCROLL 2
600000000000000000000000000000000080,
#GOGOEND
#MEASURE 4/4
000000000000000000000000000000000000000000000000,
#END

COURSE:Hard
LEVEL:6
BALLOON:24,12,11
SCOREINIT:2900
SCOREDIFF:0
#START
#MEASURE 5/4
#SCROLL 0.5
900000000000000000000000000000000000000000000000000000000000,
000000000000000000000000000000000000000000000000000000000000,
000000000000000000000000000800000000000000000000000000000000,
000000000000000000000000000000000000000000000000000000000000,
#MEASURE 6/4
200000000000000000200000000000000000200000000000200000000000200000000000,
200000000000000000200000000000000000200000000000200000000000200000000000,
#MEASURE 5/4
100000000000000000100000000000000000100000000000100000000000,
100000000000000000100000000000000000100000000000100000000000,
#MEASURE 6/4
100000000000000000100000000000000000100000000000100000000000100000000000,
100000000000000000100000000000000000100000000000100000000000100000000000,
#MEASURE 5/4
200000000000200000000000200000000000100000000000000000000000,
200000000000100000000000200000000000100000000000000000000000,
#BPMCHANGE 240
#MEASURE 6/4
100000100000000000300000000000000000000000000000000000000000000000000000,
#BPMCHANGE 236
100000000000000000200000000000000000100000000000100000000000100000000000,
#BPMCHANGE 240
100000000000000000000000200000000000200000000000000000000000000000000000,
100000000000000000000000000000000000200000000000000000000000000000000000,
100000000000000000000000200000000000200000000000000000000000000000000000,
100000000000000000000000000000000000200000000000000000000000000000000000,
100000000000100000000000200000000000200000000000000000000000000000000000,
100000000000100000000000200000000000200000000000000000000000000000000000,
100000000000100000000000200000000000200000000000000000000000000000000000,
300000000000300000000000000000000000300000000000300000000000000000000000,
100000000000000000000000200000000000100000000000000000000000200000000000,
100000000000000000200000000000200000200000000000200000000000200000000000,
100000000000000000000000200000000000100000000000200000200000200000000000,
100000000000200000000000200000000000100000000000100000100000100000000000,
100000000000000000000000200000000000100000000000200000000000200000000000,
100000000000000000000000000000000000500000000000000000000000080000000000,
100000100000000000300000000000000000100000000000100000100000100000000000,
200000000000200000000000200000000000200000000000000000200000000000000000,
100000100000000000300000000000000000000000000000000000000000200000200000,
200000000000000000200000000000000000200000000000000000200000000000000000,
100000000000000000000000100000000000100000000000000000000000100000000000,
100000000000000000000000100000000000100000000000000000000000100000000000,
#BPMCHANGE 236
200000000000000000200000000000000000200000000000200000000000200000000000,
#BPMCHANGE 232
200000000000000000000000000000000000100000000000100000000000100000000000,
#BPMCHANGE 240
#SCROLL 0.75
#GOGOSTART
100000000000000000200000000000100000100000000000000000000000200000000000,
100000000000100000000000100000000000200000000000100000000000200000000000,
100000000000100000000000100000000000200000000000200000000000200000000000,
100000000000000000000000000000000000200000000000000000000000000000000000,
100000000000000000000000200000000000100000000000100000000000200000000000,
100000000000000000000000100000000000200000000000100000000000200000000000,
400000000000400000000000000000000000400000000000400000000000000000000000,
100000000000200000000000100000000000100000100000100000000000100000000000,
100000000000000000200000000000100000100000000000000000000000200000000000,
100000000000100000000000100000000000200000000000200000000000200000000000,
100000000000200000000000100000000000200000000000100000000000200000000000,
500000000000000000000000000000000000000000000080000000000000000000000000,
100000000000000000000000200000000000200000000000000000000000200000000000,
100000000000100000000000200000000000100000000000000000000000000000000000,
100000000000200000000000000000200000100000000000100000000000200000000000,
100000000000100000000000200000000000500000000000000000000000080000000000,
100000000000200000000000200000000000100000000000000000000000200000000000,
700000000000000000000000000000000000000000000000000000800000000000000000,
#BPMCHANGE 236
400000000000000000300000000000000000400000000000000000300000000000000000,
#GOGOEND
#SCROLL 0.5
#BPMCHANGE 240
100000000000100000000000000000000000100000000000100000000000000000000000,
200000000000200000000000000000000000200000000000200000000000000000000000,
100000000000000000200000000000200000200000000000200000000000200000000000,
100000000000000000200000000000200000200000000000200000000000200000000000,
100000000000000000200000000000200000200000000000200000000000200000000000,
#BPMCHANGE 230
400000000000000000000000000000000000000000000000000000000000000000000000,
#BPMCHANGE 234
100000000000000000000000000000000000200000000000000000000000000000000000,
100000000000000000000000200000000000200000000000000000000000000000000000,
100000000000000000000000000000000000200000000000000000000000000000000000,
100000000000100000000000200000000000200000000000000000000000000000000000,
200000000000000000000000000000000000200000000000000000000000000000000000,
200000000000000000000000000000000000200000000000000000000000000000000000,
300000000000300000000000000000000000300000000000300000000000000000000000,
200000000000100000000000200000000000
#BPMCHANGE 240
100000000000200000200000200000000000,
#GOGOSTART
#SCROLL 0.75
100000000000000000200000000000100000100000000000000000000000200000000000,
100000000000100000000000100000000000200000000000200000000000200000000000,
100000000000200000000000100000000000200000000000100000000000200000000000,
500000000000000000000000000000000000000000000080000000000000000000000000,
100000000000000000000000200000000000200000000000000000000000200000000000,
100000000000100000000000200000000000100000000000000000000000000000000000,
100000000000200000000000000000200000100000000000100000000000200000000000,
100000000000100000000000200000000000500000000000000000000000080000000000,
100000000000200000000000200000000000100000000000000000000000200000000000,
700000000000000000000000000000000000000000000000000000800000000000000000,
400000000000000000300000000000000000400000000000000000300000000000000000,
400000000000000000300000000000000000400000000000000000300000000000000000,
#SCROLL 0.5
#GOGOEND
200000000000200000200000000000200000200000000000200000000000200000000000,
200000000000200000200000000000200000200000000000200000000000200000000000,
200000000000200000200000000000200000200000000000200000000000200000000000,
#BPMCHANGE 230
200000000000000000000000000000000000
#GOGOSTART
#SCROLL 2
600000000000000000000000000000000080,
#GOGOEND
#MEASURE 4/4
000000000000000000000000000000000000000000000000,
#END

COURSE:Normal
LEVEL:6
BALLOON:22,9,9
SCOREINIT:4080
SCOREDIFF:0
#START
#MEASURE 5/4
#SCROLL 0.5
900000000000000000000000000000000000000000000000000000000000,
000000000000000000000000000000000000000000000000000000000000,
000000000000000000000000000800000000000000000000000000000000,
000000000000000000000000000000000000000000000000000000000000,
#MEASURE 6/4
200000000000000000200000000000000000200000000000000000000000000000000000,
200000000000000000200000000000000000200000000000000000000000000000000000,
#MEASURE 5/4
100000000000000000100000000000000000100000000000000000000000,
100000000000000000100000000000000000100000000000000000000000,
#MEASURE 6/4
100000000000000000100000000000000000100000000000100000000000000000000000,
100000000000000000100000000000000000100000000000100000000000000000000000,
#MEASURE 5/4
200000000000000000000000200000000000200000000000000000000000,
200000000000000000000000200000000000200000000000000000000000,
#BPMCHANGE 240
#MEASURE 6/4
300000000000000000300000000000000000000000000000000000000000000000000000,
#BPMCHANGE 236
100000000000000000200000000000000000100000000000100000000000100000000000,
#BPMCHANGE 240
100000000000000000000000000000000000200000000000000000000000000000000000,
100000000000000000000000000000000000200000000000000000000000000000000000,
100000000000000000000000000000000000200000000000000000000000000000000000,
100000000000000000000000000000000000200000000000000000000000000000000000,
100000000000000000000000200000000000200000000000000000000000000000000000,
100000000000000000000000200000000000200000000000000000000000000000000000,
100000000000000000000000200000000000200000000000000000000000000000000000,
300000000000300000000000000000000000300000000000300000000000000000000000,
100000000000000000000000100000000000100000000000000000000000100000000000,
100000000000000000000000000000000000200000000000200000000000200000000000,
100000000000000000000000100000000000100000000000000000000000100000000000,
100000000000000000000000000000000000100000000000100000000000100000000000,
100000000000000000000000100000000000100000000000000000000000100000000000,
100000000000000000000000000000000000500000000000000000000080000000000000,
300000000000000000300000000000000000000000000000000000000000000000000000,
200000000000200000000000200000000000200000000000000000200000000000000000,
300000000000000000300000000000000000000000000000000000000000000000000000,
200000000000000000200000000000000000200000000000000000200000000000000000,
100000000000000000000000000000000000100000000000000000000000000000000000,
100000000000000000000000100000000000100000000000000000000000000000000000,
#BPMCHANGE 236
500000000000000000000000000000000000000000000000000000000000000000000080,
#BPMCHANGE 232
000000000000000000000000000000000000100000000000000000000000000000000000,
#BPMCHANGE 240
#SCROLL 0.75
#GOGOSTART
100000000000000000100000000000000000200000000000000000000000000000000000,
100000000000100000000000100000000000200000000000000000000000000000000000,
100000000000100000000000100000000000200000000000200000000000200000000000,
100000000000000000000000000000000000200000000000000000000000000000000000,
100000000000000000000000000000000000100000000000100000000000100000000000,
100000000000000000000000000000000000200000000000000000000000000000000000,
400000000000400000000000000000000000400000000000400000000000000000000000,
500000000000000000000000000000000000000000000080000000000000000000000000,
100000000000000000100000000000000000200000000000000000000000000000000000,
100000000000100000000000100000000000200000000000000000000000000000000000,
100000000000100000000000100000000000200000000000200000000000200000000000,
500000000000000000000000000000000000000000000080000000000000000000000000,
100000000000000000000000200000000000200000000000000000000000100000000000,
100000000000000000000000100000000000100000000000000000000000000000000000,
100000000000100000000000000000000000200000000000200000000000200000000000,
100000000000000000000000100000000000100000000000000000000000000000000000,
100000000000100000000000100000000000100000000000000000000000200000000000,
700000000000000000000000000000000000000000000000000000800000000000000000,
#BPMCHANGE 236
400000000000000000300000000000000000400000000000000000300000000000000000,
#GOGOEND
#SCROLL 0.5
#BPMCHANGE 240
100000000000100000000000000000000000100000000000100000000000000000000000,
200000000000200000000000000000000000200000000000200000000000000000000000,
100000000000000000200000000000000000200000000000000000000000000000000000,
100000000000000000200000000000000000200000000000000000000000000000000000,
100000000000000000200000000000000000200000000000000000000000000000000000,
#BPMCHANGE 230
400000000000000000000000000000000000000000000000000000000000000000000000,
#BPMCHANGE 234
100000000000000000000000000000000000200000000000000000000000000000000000,
100000000000000000000000000000000000200000000000000000000000000000000000,
100000000000000000000000000000000000200000000000000000000000000000000000,
100000000000000000000000200000000000200000000000000000000000000000000000,
200000000000000000000000000000000000200000000000000000000000000000000000,
200000000000000000000000000000000000000000000000000000000000000000000000,
300000000000300000000000000000000000300000000000300000000000000000000000,
500000000000000000000000000000000000
#BPMCHANGE 240
000080000000000000000000000000000000,
#GOGOSTART
#SCROLL 0.75
100000000000000000100000000000000000200000000000000000000000000000000000,
100000000000100000000000100000000000200000000000000000000000000000000000,
100000000000100000000000100000000000200000000000200000000000200000000000,
500000000000000000000000000000000000000000000080000000000000000000000000,
100000000000000000000000200000000000200000000000000000000000100000000000,
100000000000000000000000100000000000100000000000000000000000000000000000,
100000000000100000000000000000000000200000000000200000000000200000000000,
100000000000000000000000100000000000100000000000000000000000000000000000,
100000000000100000000000100000000000100000000000000000000000200000000000,
700000000000000000000000000000000000000000000000000000800000000000000000,
400000000000000000300000000000000000400000000000000000300000000000000000,
400000000000000000300000000000000000400000000000000000300000000000000000,
#SCROLL 0.5
#GOGOEND
200000000000000000200000000000000000200000000000000000000000000000000000,
200000000000000000200000000000000000200000000000000000000000000000000000,
200000000000000000200000000000000000200000000000200000000000200000000000,
#BPMCHANGE 230
200000000000000000000000000000000000
#GOGOSTART
#SCROLL 2
600000000000000000000000000000000080,
#GOGOEND
#MEASURE 4/4
000000000000000000000000000000000000000000000000,
#END

COURSE:Easy
LEVEL:4
BALLOON:16,5,5
SCOREINIT:7100
SCOREDIFF:0
#START
#MEASURE 5/4
#SCROLL 0.5
900000000000000000000000000000000000000000000000000000000000,
000000000000000000000000000000000000000000000000000000000000,
000000000000000000000000000800000000000000000000000000000000,
000000000000000000000000000000000000000000000000000000000000,
#MEASURE 6/4
200000000000000000000000000000000000000000000000000000000000000000000000,
200000000000000000000000000000000000000000000000000000000000000000000000,
#MEASURE 5/4
100000000000000000000000000000000000100000000000000000000000,
100000000000000000000000000000000000100000000000000000000000,
#MEASURE 6/4
100000000000000000000000000000000000100000000000000000000000000000000000,
100000000000000000000000000000000000100000000000000000000000000000000000,
#MEASURE 5/4
200000000000000000000000000000000000000000000000000000000000,
200000000000000000000000000000000000000000000000000000000000,
#BPMCHANGE 240
#MEASURE 6/4
300000000000000000300000000000000000000000000000000000000000000000000000,
#BPMCHANGE 236
200000000000000000000000000000000000000000000000000000000000000000000000,
#BPMCHANGE 240
000000000000000000000000000000000000200000000000000000000000000000000000,
000000000000000000000000000000000000200000000000000000000000000000000000,
000000000000000000000000000000000000200000000000000000000000000000000000,
000000000000000000000000000000000000200000000000000000000000000000000000,
100000000000000000000000000000000000200000000000000000000000000000000000,
100000000000000000000000000000000000200000000000000000000000000000000000,
100000000000000000000000000000000000200000000000000000000000000000000000,
300000000000000000000000000000000000300000000000000000000000000000000000,
100000000000000000000000000000000000100000000000000000000000000000000000,
100000000000000000000000000000000000200000000000000000000000000000000000,
100000000000000000000000000000000000100000000000000000000000000000000000,
100000000000000000000000000000000000000000000000000000000000000000000000,
100000000000000000000000000000000000100000000000000000000000000000000000,
100000000000000000000000000000000000200000000000000000000000000000000000,
300000000000000000300000000000000000000000000000000000000000000000000000,
200000000000000000000000000000000000200000000000000000000000000000000000,
300000000000000000300000000000000000000000000000000000000000000000000000,
200000000000000000000000000000000000200000000000000000000000000000000000,
100000000000000000000000000000000000100000000000000000000000000000000000,
100000000000000000000000000000000000100000000000000000000000000000000000,
#BPMCHANGE 236
500000000000000000000000000000000000000000000000000000000000000000000080,
#BPMCHANGE 232
000000000000000000000000000000000000000000000000000000000000000000000000,
#BPMCHANGE 240
#SCROLL 0.75
#GOGOSTART
100000000000000000000000000000000000100000000000000000000000000000000000,
100000000000000000000000100000000000100000000000000000000000000000000000,
100000000000000000000000000000000000100000000000000000000000000000000000,
100000000000000000000000000000000000000000000000000000000000000000000000,
200000000000000000000000000000000000200000000000000000000000000000000000,
200000000000000000000000000000000000000000000000000000000000000000000000,
400000000000000000000000000000000000400000000000000000000000000000000000,
500000000000000000000000000000000000000000000080000000000000000000000000,
100000000000000000000000000000000000100000000000000000000000000000000000,
100000000000000000000000100000000000100000000000000000000000000000000000,
100000000000000000000000000000000000100000000000000000000000000000000000,
500000000000000000000000000000000000000000000080000000000000000000000000,
200000000000000000000000000000000000200000000000000000000000000000000000,
100000000000000000000000000000000000100000000000000000000000000000000000,
200000000000000000000000000000000000200000000000000000000000000000000000,
100000000000000000000000000000000000100000000000000000000000000000000000,
200000000000000000000000000000000000200000000000000000000000000000000000,
700000000000000000000000000000000000000000000000000000800000000000000000,
#BPMCHANGE 236
400000000000000000000000000000000000400000000000000000000000000000000000,
#GOGOEND
#SCROLL 0.5
#BPMCHANGE 240
100000000000000000000000000000000000100000000000000000000000000000000000,
100000000000000000000000000000000000100000000000000000000000000000000000,
200000000000000000200000000000000000200000000000000000000000000000000000,
200000000000000000200000000000000000200000000000000000000000000000000000,
200000000000000000200000000000000000200000000000000000000000000000000000,
#BPMCHANGE 230
400000000000000000000000000000000000000000000000000000000000000000000000,
#BPMCHANGE 234
100000000000000000000000000000000000200000000000000000000000000000000000,
100000000000000000000000000000000000200000000000000000000000000000000000,
100000000000000000000000000000000000200000000000000000000000000000000000,
100000000000000000000000200000000000200000000000000000000000000000000000,
200000000000000000000000000000000000000000000000000000000000000000000000,
200000000000000000000000000000000000000000000000000000000000000000000000,
300000000000000000000000000000000000300000000000000000000000000000000000,
500000000000000000000000000000000080
#BPMCHANGE 240
000000000000000000000000000000000000,
#GOGOSTART
#SCROLL 0.75
100000000000000000000000000000000000100000000000000000000000000000000000,
100000000000000000000000100000000000100000000000000000000000000000000000,
100000000000000000000000000000000000100000000000000000000000000000000000,
500000000000000000000000000000000000000000000080000000000000000000000000,
200000000000000000000000000000000000200000000000000000000000000000000000,
100000000000000000000000000000000000100000000000000000000000000000000000,
200000000000000000000000000000000000200000000000000000000000000000000000,
100000000000000000000000000000000000100000000000000000000000000000000000,
200000000000000000000000000000000000200000000000000000000000000000000000,
700000000000000000000000000000000000000000000000000000800000000000000000,
400000000000000000000000000000000000400000000000000000000000000000000000,
400000000000000000000000000000000000400000000000000000000000000000000000,
#SCROLL 0.5
#GOGOEND
200000000000000000200000000000000000200000000000000000000000000000000000,
200000000000000000200000000000000000200000000000000000000000000000000000,
200000000000000000200000000000000000200000000000000000000000000000000000,
#BPMCHANGE 230
200000000000000000000000000000000000
#GOGOSTART
#SCROLL 2
600000000000000000000000000000000080,
#GOGOEND
#MEASURE 4/4
000000000000000000000000000000000000000000000000,
#END
