//TJADB Project
TITLE:Linda wa Kyou mo Zekkouchou
TITLEJA:リンダは今日も絶好調
SUBTITLE:--Yuri Misumi feat. Linda AI-CUE
BPM:160
WAVE:Linda wa Kyou mo Zekkouchou.ogg
OFFSET:-1.706
DEMOSTART:46.699

COURSE:Edit
LEVEL:9
BALLOON:16
SCOREINIT:510
SCOREDIFF:110
#START
,
#BPMCHANGE 159.26
22020202,
#BPMCHANGE 159.44
0020200020021121,
#BPMCHANGE 160.14
2001201020201020,
#BPMCHANGE 159.44
1100201020201020,
#BPMCHANGE 160.79
1001201020201020,
#BPMCHANGE 175.34
7008,
#GOGOSTART
#BPMCHANGE 174
12121212,
12121212,
12121212,
#MEASURE 5/4
100000100000000000100000000000100000200000100100102020200000,
#MEASURE 4/4
12121212,
1020102010201022,
12121212,
1010001000101110,
#MEASURE 5/4
1010001022122012
#GOGOEND
2000,
#MEASURE 4/4
12121212,
12121212,
1020112010201120,
1022202010221020,
12121212,
12121212,
1022112011201120,
1011102011201120,
12121212,
1030003000100011,
12121212,
12121212,
1020102210201022,
1020102210201010,
400100000400100000400011,
100100200100100200111100,
#GOGOSTART
1020112010112010,
2010112020102210,
2010201121101020,
14030101,
2210221022102120,
2210221022102120,
2210112022101120,
03340334,
1020112010112010,
2010112020102210,
2010201121101020,
14030101,
2110102000001120,
2110102000001120,
12121212,
1010222000102220,
#GOGOEND
1000221010201020,
0010102010002220,
1020002210200022,
1020002210201110,
10210202,
01221020,
10010210,
1020001110202210,
#SCROLL 1.15
1020111000201110,
#SCROLL 1.3
1020112000201120,
#SCROLL 1.45
1020111000201110,
#SCROLL 1.6
1020112012201120,
#SCROLL 1.75
1020111000201110,
#SCROLL 1.9
1020112000201120,
#SCROLL 2.05
1020112010201120,
#SCROLL 2.2
1020112200004000,
#GOGOSTART
#SCROLL 2.35
34043404,
#SCROLL 2.5
34043404,
#SCROLL 2.65
34043404,
#SCROLL 2.8
34043440,
#SCROLL 2.95
34043404,
#SCROLL 3.1
34043404,
#SCROLL 3.25
34040112,
#SCROLL 3.4
0010220110212210,
#SCROLL 3.55
01020201,
#SCROLL 3.7
02020204,
#SCROLL 3.85
2220303000000000,
#GOGOEND
#END

COURSE:Oni
LEVEL:8
BALLOON:20
SCOREINIT:600
SCOREDIFF:140
#START
,
#BPMCHANGE 159.26
,
#BPMCHANGE 159.44
,
#BPMCHANGE 160.14
,
#BPMCHANGE 159.44
,
#BPMCHANGE 160.79
7,
#BPMCHANGE 175.34
00000800,
#GOGOSTART
#BPMCHANGE 174
12021122,
11210404,
12021122,
#MEASURE 5/4
1404040430,
#MEASURE 4/4
12021122,
11210202,
12021122,
14040404,
#MEASURE 5/4
11020202
#GOGOEND
02,
#MEASURE 4/4
10210212,
01121021,
01400142,
10401240,
10210212,
01121010,
1020221011221120,
1001001010222220,
10210122,
03040122,
10210121,
12010212,
10201221,
0020001000201110,
10020020,
3000400000202220,
#GOGOSTART
1020102210102010,
0010202000102022,
1020102210201020,
0030003000102011,
10210121,
0010202000222010,
1022201000102020,
01220222,
00301121,
01220122,
1020102210201020,
04041020,
1022201000222110,
1022201011222050,
000000000000000000000008000000300000300000400000,
,
#GOGOEND
10210202,
01121022,
12021202,
1020002010201110,
10210202,
01221020,
10010210,
1020001110202210,
1020111000201110,
1020112000201120,
1020111000201110,
1020112000201120,
1020111000201110,
1020112000201120,
1020112010201120,
1020112200004000,
#GOGOSTART
34043404,
34043404,
34043404,
34043440,
34043404,
34043404,
34040112,
0010220110212210,
01020201,
02020204,
2220303000000000,
#GOGOEND
#END

COURSE:Hard
LEVEL:7
BALLOON:16,15
SCOREINIT:70
SCOREDIFF:180
#START
000000000000000000000000000000000000000000000000,
#BPMCHANGE 159.26
000000000000000000000000000000000000000000000000,
#BPMCHANGE 159.44
000000000000000000000000000000000000000000000000,
#BPMCHANGE 160.14
000000000000000000000000000000000000000000000000,
#BPMCHANGE 159.44
000000000000000000000000000000000000000000000000,
#BPMCHANGE 160.79
700000000000000000000000000000000000000000000000,
#BPMCHANGE 175.34
000000000000000000000000800000000000000000000000,
#GOGOSTART
100000000000000000200000000000100000200000200000,
100000100000200000100000000000400000000000400000,
100000000000000000200000000000100000200000200000,
#MEASURE 5/4
100000200000000000200000000000200000000000200000000000000000,
#MEASURE 4/4
100000000000000000200000000000100000200000200000,
100000100000200000100000000000400000000000400000,
100000000000000000200000000000100000200000200000,
100000200000000000200000000000200000000000200000,
#MEASURE 5/4
100000100000000000200000000000200000000000200000
#GOGOEND
000000200000,
#MEASURE 4/4
100000000000200000100000000000200000000000000000,
000000100000100000200000100000000000200000000000,
100000000000400000000000000000000000400000000000,
000000000000400000000000000000000000400000000000,
100000000000200000100000000000200000000000000000,
000000100000100000200000100000000000100000000000,
700000000000000000000000000000000000000000000000,
000000800000000000000000000000200000000000200000,
100000000000200000100000000000100000200000200000,
000000300000000000400000000000100000200000200000,
100000000000200000100000000000200000000000000000,
000000000000000000100000000000200000000000200000,
100000000000200000000000100000200000200000100000,
000000200000000000100000000000200000200000100000,
100000000000000000400000000000000000400000000000,
000000000000000000000000000000100000100000200000,
#GOGOSTART
000000000000100000000000100000100000200000100000,
000000100000200000200000000000100000200000500000,
000000000000000000000080000000200000000000200000,
000000300000000000300000000000000000000000000000,
100000000000200000100000000000100000200000100000,
000000100000200000200000000000100000200000500000,
000000000000000000000080000000200000000000200000,
000000000000000000000000000000200000200000200000,
000000000000300000000000100000100000200000100000,
000000100000200000200000000000100000200000500000,
000000000000000000000080000000200000000000200000,
000000300000000000300000000000000000000000000000,
100000000000200000100000000000200000100100100000,
100000000000200000100000000000200000100100100000,
100000200000000000000000000000300000300000400000,
000000000000000000000000000000000000000000000000,
#GOGOEND
100000000000200000100000000000200000000000200000,
000000100000100000200000100000000000200000000000,
100000200000000000200000000000200000000000200000,
100000000000200000000000200000100000000000200000,
100000000000200000100000000000200000000000200000,
000000100000200000200000100000000000200000500000,
000000000000000000000000000000000000000000000000,
000000000000000000000000000000000080000000000000,
100000200000000000200000000000200000100000200000,
000000200000100000200000000000000000000000000000,
100000200000000000200000000000200000100000200000,
000000200000100000100000100000000000200000000000,
100000200000000000200000000000200000100000200000,
000000200000100000200000000000000000000000000000,
100000200000000000200000000000200000100000200000,
000000200000100000200000000000000000400000000000,
#GOGOSTART
000000100000000000200000000000100000000000200000,
000000100000000000200000000000100000000000200000,
000000100000000000200000000000100000000000200000,
000000100000000000200000000000100000000000200000,
000000300000000000400000000000300000000000400000,
000000300000000000400000000000300000000000400000,
000000300000000000400000000000300000300000400000,
000000000000000000100000000000000000000000300000,
000000300000000000400000000000400000000000300000,
000000400000000000400000000000400000000000400000,
000000000000300000300000000000000000000000000000,
#GOGOEND
#END

COURSE:Normal
LEVEL:6
BALLOON:16,14,18
SCOREINIT:1040
SCOREDIFF:290
#START
000000000000000000000000000000000000000000000000,
#BPMCHANGE 159.26
000000000000000000000000000000000000000000000000,
#BPMCHANGE 159.44
000000000000000000000000000000000000000000000000,
#BPMCHANGE 160.14
000000000000000000000000000000000000000000000000,
#BPMCHANGE 159.44
000000000000000000000000000000000000000000000000,
#BPMCHANGE 160.79
700000000000000000000000000000000000000000000000,
#BPMCHANGE 175.34
000000000000000000000000800000000000000000000000,
#BPMCHANGE 174
#GOGOSTART
300000000000000000200000000000000000100000000000,
100000000000200000200000000000000000000000000000,
300000000000000000200000000000000000100000000000,
#MEASURE 5/4
100000100000000000100000000000000000000000000000000000000000,
#MEASURE 4/4
300000000000000000200000000000000000100000000000,
100000000000200000200000000000000000000000000000,
100000000000000000200000000000000000100000000000,
100000100000000000100000000000100000000000000000,
#MEASURE 5/4
500000000000000000000000000000000000000080000000
#GOGOEND
000000000000,
#MEASURE 4/4
100000000000000000200000000000000000000000000000,
000000100000100000000000100000000000200000000000,
000000000000200000000000000000000000200000000000,
000000000000200000000000000000000000200000000000,
100000000000000000200000000000000000000000000000,
000000100000100000000000100000000000000000000000,
700000000000000000000000000000000000000000000000,
000000000000000000800000000000000000000000000000,
100000000000200000200000000000100000000000100000,
000000300000000000300000000000000000000000000000,
100000000000100000100000000000000000000000000000,
000000000000000000000000000000000000000000000000,
100000000000200000000000100000000000100000000000,
000000000000000000000000000000000000000000000000,
300000000000000000300000000000000000300000000000,
000000000000400000000000000000000000000000000000,
#GOGOSTART
100000000000200000000000000000200000200000000000,
100000000000200000000000100000000000200000000000,
100000000000000000000000000000000000000000000000,
000000300000000000300000000000000000000000000000,
100000000000200000200000000000200000000000000000,
100000000000200000200000000000200000000000000000,
100000000000200000200000000000200000000000100000,
000000000000000000000000000000000000000000000000,
000000000000300000000000000000000000000000000000,
100000000000200000000000100000000000200000000000,
100000000000000000000000000000200000000000200000,
000000000000000000000000200000000000200000000000,
300000000000000000400000000000000000000000000000,
300000000000000000400000000000000000000000000000,
100000000000000000000000000000100000100000100000,
000000000000000000000000000000000000000000000000,
#GOGOEND
100000000000000000200000000000000000000000000000,
000000100000100000000000100000000000200000000000,
000000000000200000000000000000000000200000000000,
000000000000200000000000000000000000200000000000,
100000000000000000200000000000000000000000000000,
000000100000100000000000100000000000000000000000,
500000000000000000000000000000000000000000000000,
000000000000000000000000000000000080000000000000,
100000000000200000000000000000100000100000000000,
100000000000200000000000100000000000000000000000,
100000000000200000000000000000100000100000000000,
200000000000200000000000200000000000000000000000,
100000000000200000000000000000100000100000000000,
100000000000200000000000100000000000000000000000,
000000100000000000100000000000200000200000200000,
000000000000000000000000000000000000000000000000,
#GOGOSTART
000000200000000000200000000000200000000000000000,
000000200000000000200000000000200000000000000000,
000000200000000000200000000000200000000000000000,
100000000000100000000000200000000000000000000000,
000000100000000000100000000000200000000000000000,
000000100000000000100000000000200000000000000000,
000000200000000000200000000000100000000000100000,
000000000000000000100000000000000000000000000000,
700000000000000000000000000000000000000000000000,
000000000000000000000000000000000000000000800000,
000000000000300000300000000000000000000000000000,
#GOGOEND
#END

COURSE:Easy
LEVEL:4
BALLOON:12,10,14
SCOREINIT:740
SCOREDIFF:240
#START
000000000000000000000000000000000000000000000000,
#BPMCHANGE 159.26
000000000000000000000000000000000000000000000000,
#BPMCHANGE 159.44
000000000000000000000000000000000000000000000000,
#BPMCHANGE 160.14
000000000000000000000000000000000000000000000000,
#BPMCHANGE 159.44
000000000000000000000000000000000000000000000000,
#BPMCHANGE 160.79
700000000000000000000000000000000000000000000000,
#BPMCHANGE 175.34
000000000000000000000000800000000000000000000000,
#BPMCHANGE 174
#GOGOSTART
300000000000000000000000000000000000000000000000,
100000000000100000000000000000000000000000000000,
300000000000000000000000000000000000000000000000,
#MEASURE 5/4
100000000000000000000000100000000000000000000000000000000000,
#MEASURE 4/4
300000000000000000000000000000000000000000000000,
100000000000100000000000000000000000000000000000,
300000000000000000000000000000000000000000000000,
100000000000000000000000100000000000000000000000,
#MEASURE 5/4
100000000000100000000000100000000000100000000000
#GOGOEND
000000000000,
#MEASURE 4/4
100000000000000000100000000000000000000000000000,
000000000000200000000000000000000000200000000000,
000000000000200000000000000000000000200000000000,
000000000000200000000000200000000000000000000000,
100000000000000000100000000000000000000000000000,
000000000000200000000000000000000000000000000000,
700000000000000000000000000000000000000000000000,
000000000000000000800000000000000000000000000000,
100000000000200000000000000000000000200000000000,
000000100000000000100000000000000000000000000000,
100000000000200000000000000000000000200000000000,
100000000000000000000000000000000000000000000000,
100000000000200000000000000000000000200000000000,
000000000000200000000000000000000000200000000000,
100000000000000000100000000000000000100000000000,
000000000000000000000000000000000000000000000000,
#GOGOSTART
100000000000200000000000000000000000200000000000,
100000000000200000000000000000000000200000000000,
100000000000200000000000000000000000200000000000,
000000300000000000300000000000000000000000000000,
100000000000200000000000000000000000200000000000,
100000000000200000000000000000000000200000000000,
100000000000000000000000000000000000100000000000,
100000000000000000000000000000000000000000000000,
000000000000300000000000000000000000200000000000,
100000000000200000000000000000000000200000000000,
200000000000000000000000000000100000000000100000,
000000000000000000000000000000000000000000000000,
300000000000000000300000000000000000000000000000,
400000000000000000400000000000000000000000000000,
100000000000000000000000000000100000100000100000,
000000000000000000000000000000000000000000000000,
#GOGOEND
100000000000000000100000000000000000000000000000,
000000000000200000000000000000000000200000000000,
100000000000200000000000000000000000200000000000,
000000000000200000000000200000000000000000000000,
100000000000000000100000000000000000200000000000,
000000000000100000000000000000000000200000000000,
500000000000000000000000000000000000000000000000,
000000000000000000000000000080000000000000000000,
100000000000000000000000200000000000000000000000,
100000000000000000000000200000000000000000000000,
100000000000000000000000200000000000000000000000,
100000000000100000000000200000000000000000000000,
100000000000000000000000200000000000000000000000,
100000000000000000000000200000000000000000000000,
100000000000000000000000200000000000000000000000,
100000000000100000000000200000000000000000000000,
#GOGOSTART
100000000000200000000000000000000000200000000000,
000000000000200000000000000000000000200000000000,
000000000000200000000000000000000000200000000000,
000000000000200000000000200000000000000000000000,
100000000000200000000000000000000000200000000000,
000000000000200000000000000000000000200000000000,
000000000000200000000000000000000000200000000000,
000000000000200000000000000000000000000000000000,
700000000000000000000000000000000000000000000000,
000000000000000000000000000000000000000000000000,
000000000000800000000000000000000000000000000000,
#GOGOEND
#END
