//TJADB Project
TITLE:Senkou Valkyria
TITLEJA:閃光ヴァルキュリア
SUBTITLE:--SEIFU-MEIGETSU (Drop × Yura Hatsuki)
SUBTITLEJA:清風明月(Drop×葉月ゆら)
BPM:180
WAVE:Senkou Valkyria.ogg
OFFSET:-2.125
DEMOSTART:80.340 //shinuchi:
5410/3490/2240/1600

COURSE:Oni
LEVEL:8
BALLOON:12
SCOREINIT:520,1630
SCOREDIFF:133
#START
#MEASURE 3/4
#SCROLL 0.65
2,
200220,
200000000000200022,
2,
022,
222,
200000000000200022,
2, //8
2,
200220,
200220,
200000000000200022,
2,
222,
2,
022, //16
#MEASURE 4/4
#BPMCHANGE 188
#SCROLL 0.62
2,
#SCROLL 0.8
0,
#SCROLL 0.9
0000000000112000, //19
#SCROLL 1
1001,
2001,
20010010,
122111222111,
1000200010010010,
1000201110000000,
21111112,
100000101010100000200000100000200200100100200200,
10000340, //28
11201120,
11210122,
11201120,
11210122,
1000201020010020,
12121120,
1001201010012000,
1010201020221122, //36
1010201110102011,
11210122,
11401140,
1010201110102020,
1000201010012010,
2010201020112000,
1002001020010020,
11211210,
11111111, //45
20212011,
21102011,
20212101,
21102022,
10221022,
10221212,
10221021,
2010201122112000, //53
1000201110102000,
1010201110102020,
1000201110102010,
2011211121112111,
20221121,
0010201120102020,
1010202010102011,
21121120,
1010202211221020,
0010101122221111,
200111100200000100100200,
000000300000300000200200100100101010100000000000, //65
#GOGOSTART
1110201011102010,
2220102022201020,
1110201011102010,
2220102022212010,
20212121,
2010201020112000,
7008,
1122102011112000, //73
1110201011102010,
2222111122112211,
2110201020010010,
2211102211112010,
20212121,
2010201020112000,
20202121,
2011221110221020, //81
1010200010211020,
1010201100102000,
1010202010211020,
1010201000112000,
1000200010211020,
1010201120102000,
1000200010211010,
2010201020102011,
200100100200100200100111,
#GOGOEND
2, //91
#GOGOSTART
2121,
500000000000000000000000000000000000000008000000,
221111,
4,
0,
0,
0,
#GOGOEND
0,
0, //100
#END

COURSE:Hard
LEVEL:7
BALLOON:10
SCOREINIT:600,2280
SCOREDIFF:158
#START
#MEASURE 3/4
#SCROLL 0.65
2,
200220,
202,
2,
022,
222,
202,
2, //8
2,
200220,
200220,
202,
2,
222,
2,
022, //16
#MEASURE 4/4
#BPMCHANGE 188
#SCROLL 0.62
2,
#SCROLL 0.8
0,
#SCROLL 0.9
0000000000222000, //19
#SCROLL 1
1001,
2001,
20010010,
500000000000000000000000000008000000200000000000,
1000200010010010,
1000001110000000,
11111111,
2000002000101110,
01121122, //28
10201120,
10210122,
10201120,
10210122,
1000200010010010,
10201120,
1212,
1000200010111000, //36
10201120,
10210122,
10201120,
10210122,
1000200010010010,
1000200010111000,
1001001020020020,
10210210,
500000000000000000000000000000000008000000000000, //45
20212010,
20112010,
20212010,
20112010,
10221022,
10221220,
10201220,
1000100011101000, //53
10201120,
10210120,
10201120,
11111111,
20201121,
01210122,
10201120,
20120120,
1010200011101020,
0010101010111000,
21120112,
0030300011101000, //65
#GOGOSTART
11211120,
22122210,
11211120,
22122210,
20212120,
21212120,
7008,
1110100022202000, //73
11211121,
22122212,
1000001010010010,
500000000000000000000008000000100000200000100000,
20212121,
21212120,
20202121,
1011100020222000, //81
10201120,
10210120,
10201120,
1000201000111000,
10201120,
10210120,
10201120,
21210120,
21121211,
#GOGOEND
2, //91
#GOGOSTART
2121,
500000000000000000000000000000000000000008000000,
111111,
4,
0,
0,
0,
#GOGOEND
0,
0, //100
#END

COURSE:Normal
LEVEL:6
BALLOON:9,9,14,6,7
SCOREINIT:740,3700
SCOREDIFF:200
#START
#MEASURE 3/4
#SCROLL 0.65
2,
2,
202,
2,
022,
220,
202,
2, //8
2,
202,
202,
2,
2,
222,
2,
022, //16
#MEASURE 4/4
#BPMCHANGE 188
#SCROLL 0.62
2,
#SCROLL 0.8
0,
#SCROLL 0.9
0, //19
#SCROLL 1
1001,
1001,
10010010,
500000000000000000000000000008000000000000000000,
1110,
10111000,
10201027,
000000000000000000000000000000000000000000080000,
0, //28
1202,
10210110,
1202,
10210110,
1202,
1202,
1212,
500000000000000000000000000000000008000000000000, //36
1202,
10210110,
1212,
10210110,
12,
1122,
34,
900000000000000000000000000000000009000000000008,
0, //45
2221,
2120,
2221,
2120,
1112,
1210,
1112,
1210, //53
1202,
10210110,
10110105,
000000000000000000000008000000000000000000000000,
10101110,
10101110,
1212,
30030030,
7,
00000800,
10110202,
0, //65
#GOGOSTART
10101110,
20202220,
10101110,
20202220,
20222020,
20222020,
7008,
10022000, //73
10101110,
20202220,
10015000,
000000000000000000000008000000000000000000000000,
20222020,
20222020,
1212,
22201110, //81
1212,
10210110,
1212,
10210220,
1212,
10210110,
1212,
1222,
10120220,
#GOGOEND
2, //91
#GOGOSTART
2121,
500000000000000000000000000000000000000008000000,
700000000000000000000000000000000000000008000000,
4,
0,
0,
0,
#GOGOEND
0,
0, //100
#END

COURSE:Easy
LEVEL:4
BALLOON:8,7,11,5,6
SCOREINIT:620,5910
SCOREDIFF:190
#START
#MEASURE 3/4
#SCROLL 0.65
2,
2,
2,
0,
022,
2,
2,
0, //8
2,
2,
2,
0,
2,
2,
2,
0, //16
#MEASURE 4/4
#BPMCHANGE 188
#SCROLL 0.62
2,
#SCROLL 0.8
0,
#SCROLL 0.9
0, //19
#SCROLL 1
3,
3,
3,
500000000000000000000000000008000000000000000000,
1110,
11,
1117,
0,
8, //28
1202,
1,
1202,
1,
11,
1111,
11,
500000000000000000000000000000000008000000000000, //36
1202,
1,
1202,
1,
11,
1111,
11,
900000000000000000000000000000000009000000000008,
0, //45
22,
2220,
22,
2220,
1110,
1110,
11,
1110, //53
1202,
1202,
10200500,
000000000000000000000008000000000000000000000000,
12,
12,
1110,
30030000,
7,
00000800,
10000003,
0, //65
#GOGOSTART
1110,
2220,
1110,
2220,
2222,
2222,
7008,
34, //73
1110,
2220,
15,
000000000000000000000008000000000000000000000000,
2222,
2222,
10001005,
000000000000000008000000000000000000000000000000, //81
1202,
1210,
1202,
1210,
1202,
1210,
1212,
1212,
500000000000000000000000000008000000000000000000,
#GOGOEND
2, //91
#GOGOSTART
1111,
500000000000000000000000000000000000000008000000,
700000000000000000000000000000000000000008000000,
4,
0,
0,
0,
#GOGOEND
0,
0, //100
#END
