//TJADB Project
TITLE:Iroha Step!
TITLEJA:いろはすてっぷ!
SUBTITLE:--Kazama Iroha
SUBTITLEJA:風真いろは
BPM:156
WAVE:Iroha Step.ogg
OFFSET:-1.323
DEMOSTART:48.053 //Shinuchi:
6360/3510/2420/1680

COURSE:Oni
LEVEL:7
BALLOON:24,10,24,10,10,40
SCOREINIT:560,1840
SCOREDIFF:128 //NS2 score: 570/138 (8* score)
#START
0,
22,
2000000020222220,
1000200010102210,
03033020, //5
1000201210102010,
0010200010102022,
1000201210102010,
0010201120102022,
1000201210102010,
0010202010112010,
2011201020112220,
11110400, //13
1000201110102010,
11212020,
1000201110102010,
1010201020112020,
1010201111102020,
1110111110010020,
10201123,
0022222010200000, //21
1001101020022020,
1001101020222000,
1001101020022020,
1001101020003000,
30211121,
11211121,
1001201010102220,
3001201030012070,
0,
0800, //31
#GOGOSTART
3000101120102020,
1010201202102020,
1000101120102010,
0022201000202222,
1000201110102010,
0011102000112022,
10201121,
0010201110102222,
1000101120102020,
1010201202102020,
1000202011102060,
000000000000000000000000000008000000000000200000, //43
#GOGOEND
20002002,
02220022,
11201127,
000000000000000000000000000008000000200000200000,
10201121,
0
#GOGOSTART
30330
#GOGOEND
22, //49
1000100011102010,
0011101020100020,
1000100011102010,
0011101022112211,
1010201011102022,
1010201110102010,
2011201020112010,
2011201120112220,
7,
00081110, //59
1,
10001101,
10000221,
0022201000222220, //63
0000
#GOGOSTART
300011102010,
0010102000112022,
11201121,
0011102011112222,
1000101120102011,
1010201202102220,
1000202011102060,
000000000000000000000000000008000000000000100000, //71
1000200011102010,
0010102000102220,
1010201210102070,
000000000000000000000000000008000000200200200000,
1010201210102070,
000000000000000000000000000008000000200200200000,
1010201210102070,
0,
000000000000000000000000000000000000000000080000, //80
#GOGOEND
03033022,
0
#GOGOSTART
303300
#GOGOEND
3,
0,
0, //84
#END

COURSE:Hard
LEVEL:5
BALLOON:25,16,9,18,9,9,17
SCOREINIT:600,2710
SCOREDIFF:143 //NS2 score: 640/155 (6* score)
#START
0,
22,
20002022,
10201121,
03033020, //5
10201101,
02200111,
10201101,
01220221,
10201101,
02200700,
0,
08, //13
10201022,
10112020,
10201022,
10221020,
1010201011100010,
1010201110010010,
10201113,
02220200, //21
1001001020020020,
1001001020000000,
1001001020020020,
1001001020003000,
30201121,
10201121,
10211020,
3001001030010090,
000000000009,
0800, //31
#GOGOSTART
30101122,
11210220,
10201125,
000000000000000000000000000008000000200000000000,
10211101,
0010102000222000,
10201121,
01220222,
10201122,
11120220,
10101126,
000000000000000000000000000008000000000000000000, //43
#GOGOEND
20002002,
02220022,
10201127,
000000000000000000000000000008000000200000200000,
10201011,
0
#GOGOSTART
30330
#GOGOEND
00, //49
10101101,
01102202,
10101101,
0010100020222000,
1000100011100010,
01201120,
21202120,
2010201020111020,
7,
08, //59
1,
10001101,
10000221,
02210222, //63
00
#GOGOSTART
301101,
0010201000222000,
11201121,
0010102022202020,
10201122,
11210220,
10201126,
000000000000000000000000000008000000000000100000, //71
10201121,
0010102000002220,
11201127,
000000000000000000000000000008000000200200200000,
11201127,
000000000000000000000000000008000000200200200000,
11202129,
0000000000000900,
08000000, //80
#GOGOEND
03033022,
0
#GOGOSTART
303300
#GOGOEND
3,
0,
0, //84
#END

COURSE:Normal
LEVEL:5
BALLOON:18,15,8,15,8,8,12
SCOREINIT:680,4020
SCOREDIFF:180
#START
0,
22,
22,
10001011,
03033000, //5
10001101,
01100000,
10001101,
01110100,
10001101,
01100700,
0,
08, //13
10001011,
1110,
10001011,
1122,
10111100,
1000101010010000,
10001003,
00000200, //21
20022000,
20022000,
20022000,
20022030,
30201011,
10201011,
10011000,
30003009,
000000000009,
0800, //31
#GOGOSTART
30101110,
10110020,
10101105,
000000000000000000000000000008000000000000000000,
10201101,
01110020,
10201101,
01110020,
10101110,
10110020,
10102226,
000000000000000000000000000008000000000000000000, //43
#GOGOEND
20002002,
00020000,
10101117,
0008,
11,
0
#GOGOSTART
30330
#GOGOEND
00, //49
10002001,
01102200,
10002001,
01102220,
10101101,
01101020,
10101110,
10101110,
7,
08, //59
1,
1,
10000005,
000000000000000000000000000008000000000000000000, //63
00
#GOGOSTART
301101,
01110020,
10101101,
01110020,
10101110,
10110020,
10102226,
000000000000000000000000000008000000000000000000, //71
10101101,
01110020,
10101117,
0008,
10101117,
0008,
10101119,
0000000000000900,
08000000, //80
#GOGOEND
03033000,
0
#GOGOSTART
303300
#GOGOEND
3,
0,
0, //84
#END

COURSE:Easy
LEVEL:3
BALLOON:14,12,5,10,5,5,8
SCOREINIT:700,7630
SCOREDIFF:230
#START
0,
22,
22,
11,
03003000, //5
10000001,
0,
10000001,
00010000,
10000001,
00000700,
0,
08, //13
1,
11,
1,
11,
12,
12,
10001003,
0, //21
2,
2,
2,
2003,
3011,
1011,
11,
30003009,
000000000009,
0800, //31
#GOGOSTART
3110,
10010000,
10101005,
000000000000000000000000000008000000000000000000,
10001001,
00010000,
10001001,
00010000,
1110,
10010000,
20202006,
000000000000000000000000000008000000000000000000, //43
#GOGOEND
20002002,
00020000,
10001007,
0008,
11,
0
#GOGOSTART
30030
#GOGOEND
00, //49
12,
02,
12,
02,
10001001,
01,
1110,
1110,
7,
08, //59
1,
1,
10000005,
000000000000000000000000000008000000000000000000, //63
00
#GOGOSTART
300001,
00010000,
10101003,
00030000,
1110,
10010000,
20202006,
000000000000000000000000000008000000000000000000,
10001001,
00010000,
10101007,
0008,
10101007,
0008,
10101009,
0000000000000900,
08000000, //80
#GOGOEND
03003000,
0
#GOGOSTART
300300
#GOGOEND
3,
0,
0, //84
#END
