//TJADB Project
TITLE:DIMENSIONS
TITLEJA:DIMENSIONS
SUBTITLE:--DUNKEL
BPM:252
WAVE:DIMENSIONS.ogg
OFFSET:-3.953
DEMOSTART:71.805

COURSE:Oni
LEVEL:9
BALLOON:50
SCOREINIT:600
SCOREDIFF:153
#START
#SCROLL 0.55
#MEASURE 8/4
00000001,
1000000020100100,
1010200000102100,
1001012100102110,
#BPMCHANGE 251.84
1001101000102110,
3000000122102202,//6
#GOGOSTART
#BPMCHANGE 252
1001102211201010,
0010112202102101,
1001102211201010,
0010210112102102,
1001102211201010,
0010112202102101,
1001102222112010,
2010112112112122,//14
#GOGOEND
1012203000030000,
4000040000300000,
0000012202121011,
1011002011012111,
0010210100012110,
1011002001011030,
2211030220120110,
2101201001211210,
1021112000302102,
2112112021121120,
102010201020100100100200200200100000200200200200,
1003006000008000,
#MEASURE 6/4
100120110120,//27
#MEASURE 8/4
300000000300000000400000000100200000000000202020,
2212221211120200,
3003006000008000,
#MEASURE 6/4
111221221122,
#MEASURE 8/4
2122003002112200,
#MEASURE 5/4
0112221121,
#MEASURE 8/4
1021001201201110,//34
#MEASURE 4/4
22102102,
#MEASURE 8/4
1000100010001022,
10000022202000200020004000000000,
#GOGOSTART
3001102221121030,
0010112211122030,
0010112221222030,
0010210222102101,
1001102221121030,
0011225080102101,
1001203020302030,
2010112112112122,//45
10000010001000112020100011202010,
0211201012011020,
10200000112020001010102020002010,
00222020201010001020202010102020,
10000010002010000020100011202010,
00201000200011202020001000201000,
10200000112020001010102020002010,
00222020201010001020202010101010,//53
#GOGOEND
00001000102020001120202020112020,
#MEASURE 4/4
2020112020202011,
22227000,
#MEASURE 8/4
,
,
8,
#END

COURSE:Hard
LEVEL:8
BALLOON:14,32,45
SCOREINIT:670
SCOREDIFF:150
#START
#SCROLL 0.55
#MEASURE 8/4
0,
0000000000200200,
1010000000200200,
1010000000200200,
#BPMCHANGE 251.84
1001101000101110,
3000000022102202,//6
#GOGOSTART
#BPMCHANGE 252
1001101000102010,
0010210002102010,
1001101000102010,
0010210002112102,
1001101000102010,
0010210002102010,
1001101000102010,
2010110112102022,//14
#GOGOEND
1010003000030000,
4000040000300000,
0000010202101022,
1011000000000111,
0110000000012110,
1011000001011010,
0030030022220210,
1202100101202110,
1021103000300400,
1112002011120020,
7008,
3003006000008000,
#MEASURE 6/4
101020120120,//27
#MEASURE 8/4
3003003000400022,
2211222211120200,
3003006000008000,
#MEASURE 6/4
101020120120,
#MEASURE 8/4
3003003000400000,
#MEASURE 5/4
1111222211,
#MEASURE 8/4
1001001201200010,//34
#MEASURE 4/4
11101202,
#MEASURE 8/4
5008,
3000220202020000,
#GOGOSTART
3001102221102030,
0010101102102030,
0010102110201030,
0010210102102101,
1001102101211030,
0011221001121120,
3001102010201030,
0030003000302022,//45
7,
0008,
1002011011221001,
0210012011210211,
1002011011221001,
0210012002101221,
1122101102101125,
00000008,//53
#GOGOEND
0010100030000300,
#MEASURE 4/4
00400004,
07,
#MEASURE 8/4
,
,
8,
,
,
#MEASURE 4/4
,
#END

COURSE:Normal
LEVEL:6
BALLOON:8,8,55,36
SCOREINIT:1330
SCOREDIFF:390
#START
#SCROLL 0.55
#MEASURE 8/4
0,
0,
11000000,
11000000,
#BPMCHANGE 251.84
2222,
3,//6
#GOGOSTART
#BPMCHANGE 252
10010001,
01010000,
10010002,
02020000,
10010001,
01010000,
10010002,
02500000,//14
#GOGOEND
8000003000030000,
3000030000300000,
0,
11000001,
01100001,
11000003,
0030030000000001,
0101000000000010,
01030000,
0002002000020020,
7008,
3003006000008000,
#MEASURE 6/4
3,//27
#MEASURE 8/4
3003003000300000,
7008,
3003006000008000,
#MEASURE 6/4
3,
#MEASURE 8/4
3003003000300000,
#MEASURE 5/4
20202,
#MEASURE 8/4
10010100,//34
#MEASURE 4/4
,
#MEASURE 8/4
2222,
3,
#GOGOSTART
10101001,
01101001,
1010001000000500,
08,
10110011,
00110110,
10110101,
01030300,//45
0900000000000000,
,
,
98,
1000101000000002,
02020000,
10110005,
00000008,//53
#GOGOEND
0000000030000300,
#MEASURE 4/4
00300003,
07,
#MEASURE 8/4
,
,
8,
,
,
#MEASURE 4/4
,
#END

COURSE:Easy
LEVEL:4
BALLOON:24,6,6,3,3,45,30
SCOREINIT:1150
SCOREDIFF:300
#START
#SCROLL 0.55
#MEASURE 8/4
0,
0,
11000000,
11000000,
#BPMCHANGE 251.84
2222,
2,//6
#GOGOSTART
#BPMCHANGE 252
50008001,
01010000,
50008002,
02020000,
50008001,
01010000,
50008002,
02020000,//14
#GOGOEND
00070000,
,
0800,
11000001,
01100001,
11000003,
0000000000000001,
0101000000000010,
01030000,
24,
7008,
3003006000000000,
#MEASURE 6/4
080,//27
#MEASURE 8/4
3003003000300000,
7008,
3003006000000000,
#MEASURE 6/4
080,
#MEASURE 8/4
3003003000300000,
#MEASURE 5/4
,
#MEASURE 8/4
7878,//34
#MEASURE 4/4
,
#MEASURE 8/4
2222,
2,
#GOGOSTART
10101001,
00101001,
00101005,
08,
10110001,
00110000,
10010101,
,//45
0900000000000000,
,
,
98,
10001105,
08001100,
10001105,
00000008,//53
#GOGOEND
05,
#MEASURE 4/4
8600,
0870,
#MEASURE 8/4
,
,
8,
,
,
#MEASURE 4/4
,
#END
