//TJADB Project
TITLE:Destination 2F29
TITLEJA:Destination 2F29
SUBTITLE:--Ini Manami
SUBTITLEJA:井荷麻奈実
BPM:241.46
WAVE:Destination 2F29.ogg
OFFSET:-0.285
DEMOSTART:16.188

COURSE:Oni
LEVEL:10
SCOREINIT:1010
SCOREDIFF:0
#START
#SCROLL 0.75
2,
,
,
,
0200,
,
,
,
22212212,
200100200020200100200200,
21222122,
202020200100200200200100,
2020222010202020,
202020200100200200100200,
200020200200100200200200,
2020202022222020,
21112112,
100000100200100000100000100000002000200000100000,
100000100200200000100000100000002000200000100000,
100000100000100200100000100000001000200000100000,
1121202010201020,
100000100200100000100000200100002000100000200000,
100000100200100000100000200000001000100000200000,
100000100000100200100000100000001000200000100000,
202020100100100000200100,
000000200200100000002000100000002000100000200000,
100000100200200010001000100000100100100000100000,
200200100100102010200200,
201010200100100000200100,
000000100100100000001000100000001000100000200000,
100000200000200020002000100100200200100200100000,
#MEASURE 2/4
10101210,
#BARLINEOFF
11111,
#MEASURE 4/4
#BARLINEON
100000000100200010100100,
100000100010200100100100,
100000100100100000100000200000001000100000100000,
100000100200100000002000100000200000100000200100,
100000000000000000100100200000000000100000001000,
100010100200100010001050,
000000000000000008000000100050000000008000000000,
11111,
1000101020101120,
100100100000100000001000200000100000100010001000,
100000002000000020000000100000100000200000200200,
1020201020112211,
2220001022112022,
100112112112,
100100020222100202,
1002001110201020,
#MEASURE 7/4
500000000000000008000000200000100200100000200000
500008000000100000000000300000000000,
500000000000000008000000200000100200100000200000
500008000000100000000000300000000000,
#MEASURE 4/4
2002002022202020,
2022202020001010,
200000002000200000200000202020200000200000000200,
200201111100100,
1000000020002022,
000000200000202020200000000000200200000200000000,
1020220202002202,
200000200200000200002020000200000000200000200200,
100000000000200000200200000020002000200000202000,
000000200000202020200000000000200200000200000000,
100000200000200200000200000200000000200020000200,
2022200020002000,
2110,
0000200020022020,
2110,
000200222200,
1000000020020020,
20000222,
1000202220020020,
200000002000100000200000100000100000100100100000,
101010100100100000100100,
000000200200100000002000100000002000100000200000,
100000100000000020002000100000200200100000200000,
100200200100202020100200,
102020100200100000200100,
000000200200100000000200100000002000100000200000,
100000200000200020002000200200200200202020202020,
1020222210102020,
100010000010100000100200,
100010000010100000100200,
100020100010100000100200,
11011012,
100010000010100000100200,
100010000100100100100020,
12100101,
12221212,
100020100020100000100100,
100020100222100000100100,
100020100200100200111100,
102020102020100200,
1002000210021020,
100000101010100000100000200000000200000000200000,
100000000000500000000000000008000000100000100000,
#MEASURE 2/4
11111,
#MEASURE 4/4
#SCROLL 1
#GOGOSTART
101010100020100000200100,
100020002000100000202020100200200000100000200000,
100020100200100200111100,
100000202020100000200000100100101010100000100000,
101010001000200000100100200010001000200010002000,
100000202000000000100000100100100000100000001000,
200020100000200100100200,
101010000000200000100000100100100100200000200000,
101010100020100000200100,
100020002000100000202020100200200000100000200000,
100020100200100222100200,
301210401210301210,
200200100100100000002000100000002000100000200000,
100000101010100000100000200000000200000000200000,
100100100000500000000008000000001000000010002000,
#MEASURE 2/4
12121,
#MEASURE 4/4
200000000000200000002000100000100000100000200200,
100000002000100000200000100000200200100000200000,
1211211211,
212121,
200020001000100000200200100000202020100100100100,
100000002000200000100000100000100000000000100100,
#GOGOEND
100200200200200200202020,
22222222,
100010002000100010002000100100100200100100100200,
100200100200102020102020102020102020102020100000,
2020202022222020,
200200200200200200102020,
100200100200100020002000100200100200100020002000,
100200100200102020201020202010201020102010200000,
#SCROLL 2
#BPMCHANGE 120.729
3,
,
,
#END

COURSE:Hard
LEVEL:7
BALLOON:5,12,14
SCOREINIT:1870
SCOREDIFF:0
#START
#SCROLL 0.75
2,
,
,
,
0200,
,
,
,
22222022,
200000200020200000200200,
20222022,
20222020,
2020222020202000,
202020200000200200200000,
200020200000200200200000,
22202020,
21111011,
10111011,
10111011,
10111020,
00211110,
11101011,
100100100000100010100000,
11101020,
202020100100100000200100,
000200100010100010100000,
100000101010100000100100,
10111020,
00211110,
000100100010100010100100,
100000202020200200100100,
10000100001010101010,
10012011,
100000100010200000100100,
10012011,
10102012,
100000000100200000100010,
10112000,
12,
11111,
10112012,
100101200111,
102020100200,
10112012,
10012012,
1120,
100100020200000202,
1001001010102020,
#MEASURE 7/4
500000000000000000000000000000000008000000000000
100000000000100000000000300000000000,
500000000000000000000000000000000008000000000000
100000000000100000000000300000000000,
#MEASURE 4/4
2002002020000000,
22222000,
200020200200200000200000,
22000,
22,
,
22,
,
22,
,
22,
0022,
2110,
0000200020022020,
2110,
00200222200,
1000000020020020,
20000222,
1000202020020020,
100010100100100000100000,
101010100000200000100100,
01102010,
100100002020100000200000,
100000200100202020200000,
00201021,
000000200000100000000200100000002000100000000000,
100100101010100000200000,
12221020,
100010000010100000100000,
100010000010100000100000,
100010000010100000100000,
11011010,
100010000010100000100000,
100010000100100100100000,
10100101,
1111,
102202200100,
102202200100,
100020200200200200200000,
111,
11,
1000100020020020,
500000000000000000000000000000000000000000000008,
#MEASURE 2/4
,
#MEASURE 4/4
#SCROLL 1
#GOGOSTART
100000100020100000100200,
100000100020100000100200,
100020100200100200100200,
1212,
100100200101,
100100200101,
1212,
1111,
100000100020100000100200,
100000100020100000100200,
100020100200100000100200,
333,
300000100020100200100200,
1212,
7,
#MEASURE 2/4
8,
#MEASURE 4/4
100000100020100000100200,
100020100200100000100200,
1201201201,
212121,
20121012,
100020100200200100000000,
#GOGOEND
1,
,
7,
08,
2,
0007,
,
08,
#SCROLL 2
#BPMCHANGE 120.729
3,
,
,
#END

COURSE:Normal
LEVEL:6
BALLOON:4,9,11
SCOREINIT:3440
SCOREDIFF:0
#START
#SCROLL 0.75
2,
,
,
,
0200,
,
,
,
2,
,
,
,
2200,
,
,
,
21,
01,
01,
0002,
0201,
0001,
0001,
0002,
21,
01,
01,
0002,
0201,
0001,
0001,
0000010101,
10012000,
100101200000,
10012000,
1120,
10012000,
10012000,
12,
11111,
10012000,
100101200000,
122100,
1120,
10012000,
1120,
12,
1001001010002000,
#MEASURE 7/4
500000000000000000000000000000000008000000000000
100000000000100000000000100000000000,
500000000000000000000000000000000008000000000000
100000000000100000000000100000000000,
#MEASURE 4/4
2002002020000000,
22222000,
22,
22000,
02,
,
02,
,
02,
,
02,
,
2110,
,
2110,
0222,
1000000020020020,
20000222,
1000202020020020,
1110,
20002011,
0120,
11001020,
0102,
0201,
01101020,
01101020,
11,
1001,
1001,
1001,
1001,
1001,
1001,
10100101,
1,
1110,
1110,
1110,
111,
1110,
1110,
500000000000000000000000000000000000000000000008,
#MEASURE 2/4
,
#MEASURE 4/4
#SCROLL 1
#GOGOSTART
10101012,
10101012,
10101012,
1212,
100100100102,
100100100102,
1212,
1111,
10101012,
10101012,
10101012,
111,
10101012,
1212,
7,
#MEASURE 2/4
8,
#MEASURE 4/4
10101012,
10121012,
1201201201,
212121,
20121012,
100020100000200100000000,
#GOGOEND
1,
,
7,
08,
2,
0007,
,
08,
#SCROLL 2
#BPMCHANGE 120.729
3,
,
,
#END

COURSE:Easy
LEVEL:4
BALLOON:3,7,9
SCOREINIT:4800
SCOREDIFF:0
#START
#SCROLL 0.75
2,
,
,
,
0200,
,
,
,
2,
,
,
,
2200,
,
,
,
21,
01,
01,
0002,
0201,
0001,
0001,
0002,
21,
01,
01,
0002,
0201,
0001,
0001,
,
12,
1120,
12,
1120,
12,
12,
12,
11111,
12,
1120,
111200,
1120,
12,
1120,
12,
12,
#MEASURE 7/4
500000000000000000000000000000000008000000000000
100000000000100000000000100000000000,
500000000000000000000000000000000008000000000000
100000000000100000000000100000000000,
#MEASURE 4/4
2002002020000000,
22,
22,
22000,
02,
,
02,
,
02,
,
02,
,
2220,
,
2220,
0222,
1000000020020020,
2,
1000000020020020,
2,
2,
02,
02,
0002,
0202,
0002,
0002,
11,
1001,
1001,
1001,
1001,
1001,
1001,
1,
1,
11,
1110,
11,
111,
11,
1110,
500000000000000000000000000000000000000000000008,
#MEASURE 2/4
,
#MEASURE 4/4
#SCROLL 1
#GOGOSTART
1110,
1110,
1111,
11,
100100100001,
100100100001,
1110,
11,
1110,
1110,
1111,
111,
1110,
1110,
7,
#MEASURE 2/4
8,
#MEASURE 4/4
1110,
1110,
0200200200,
222,
22,
1110,
#GOGOEND
1,
,
7,
08,
2,
0007,
,
08,
#SCROLL 2
#BPMCHANGE 120.729
3,
,
,
#END
