//TJADB Project
TITLE:Senkou
TITLEJA:閃光
SUBTITLE:--Mobile Suit Gundam: Hathaway's Flash
SUBTITLEJA:『機動戦士ガンダム 閃光のハサウェイ』より
BPM:208
WAVE:Senkou.ogg
OFFSET:-0.857
DEMOSTART:81.59 //Shinuchi:
7240/3950/2360/1510

COURSE:Oni
LEVEL:8
BALLOON:6
SCOREINIT:510,1540
SCOREDIFF:128
#START
10110020,
01101010,
10110010,
11001000,
10110020,
01101030,
00111111,
100010001000100010001000100100100100100100100100, //8
2011102000102000,
21101010,
1011101000102000,
2022202010001000,
2011102000102000,
21101010,
2011102011102011,
1020202011111111, //16
2011102000102000,
21101010,
1011101000102000,
2022202010001000,
2011102000102000,
200100100000101010101010, //22
10001011,
20112110,
500000000000000000000008000000000000200000200000,
10011011,
20111011,
20111001,
2010201020102011,
2020202000200022, //30
10001011,
20112110,
500000000000000000000008000000000000200000200000,
10011011,
20111011,
20111001,
2010201020102011,
2020202040040040, //38
1000201110002010,
1000201110102000,
500000000000000000000008000000000000200000200000,
1000201110102010,
1010201110102010,
1010201110002011,
2010201020102011,
2020202000222000, //46
1000201110002010,
1000201110102000,
500000000000000000000008000000000000200000200000,
1000201110102010,
1010201110102010,
1010201110002011,
2010201020102011,
200100200100101010101010, //54
3011,
200000200200101010101010,
20101012,
200000200200101010101010,
20101022,
000200100000100000201010,
20101022,
000200000200101010101010, //62
2012,
200200000200101010101010,
2112,
222222111111,
20102110,
20012010,
2020112000201120,
0010002040040040, //70
#GOGOSTART
1011201010112010,
1111201011112010,
2222202060000000,
000000000000000000000000000000000008000000000000,
1011201010112010,
1111200011112000,
500000000008000000100000500000000008000000100000,
1020002012221222, //78
1011201010112010,
1111201011112010,
2222202060000000,
000000000008000000000000200000000000200000000000,
2011201120112011,
2222,
1022102210221022,
70082110,
2111211121112111,
500000000000000008000000500000000000000008000000, //88
#GOGOEND
2011102000102000,
21101010,
10120120,
12021010,
2011102000102000,
21101010,
1110201110201110,
2011102020003000,
0,
0, //98
#END

COURSE:Hard
LEVEL:6
BALLOON:4
SCOREINIT:620,2410
SCOREDIFF:160
#START
10010020,
01,
10010010,
01,
10010020,
01101060,
0,
000000000000000000000008000000000000000000000000, //8
10110120,
01102010,
10110120,
12021010,
10110120,
01102010,
10110110,
11012000, //16
10110120,
01102010,
10110120,
12021010,
10110120,
01102010, //22
10001011,
10111110,
500000000000000000000008000000000000100000100000,
10011011,
10111011,
10111001,
20202011,
20220202, //30
10001011,
10111110,
500000000000000000000008000000000000100000100000,
10011011,
10111011,
10111001,
20202011,
2020200020020020, //38
10102011,
10211120,
500000000000000000000008000000000000100000100000,
10011011,
10211011,
10211001,
20202011,
20220220, //46
10102011,
10211120,
500000000000000000000008000000000000100000100000,
10011011,
10211011,
10211001,
20202011,
200200200000202020200000, //54
3,
20210101,
10000001,
20220201,
10000022,
02000020,
10000022,
000200000200202020200000, //62
3001,
22010101,
1001,
200000000000200000500000000000000008000000000000,
10201220,
10011020,
22220102,
0010002020020020, //70
#GOGOSTART
1010101010111000,
22202220,
1160,
000000000000000000000000000000000008000000000000,
1010101010111000,
22202220,
500000000008000000100000500000000008000000100000,
500000000008000000000000100100100000100000000000, //78
1010101010111000,
22202220,
1160,
000000000008000000000000100000000000100000000000,
20111011,
2022,
10221022,
70080010,
1010101011101110,
500000000000000008000000500000000000000008000000, //88
#GOGOEND
10110220,
01102020,
10110220,
11012020,
20110220,
01102020,
10110110,
11012030,
0,
0, //98
#END

COURSE:Normal
LEVEL:5
BALLOON:10
SCOREINIT:780,4100
SCOREDIFF:228
#START
1001,
0,
1001,
01,
1001,
0016,
0,
000000000000000000000008000000000000000000000000, //8
10110010,
01002000,
10010010,
11002000,
10110010,
01002000,
5,
000000000000000000000008000000000000000000000000, //16
10110010,
01002000,
10010010,
11002000,
10110010,
01002000, //22
1011,
10101110,
500000000000000000000008000000000000000000000000,
12,
1110,
1110,
1111,
10020200, //30
1011,
10101110,
500000000000000000000008000000000000000000000000,
12,
1110,
1110,
1111,
11102000, //38
1121,
10101110,
500000000000000000000008000000000000000000000000,
12,
1120,
1120,
1111,
10020200, //46
1121,
10101110,
500000000000000000000008000000000000000000000000,
12,
1120,
1120,
1111,
11102000, //54
3,
500000000000000000000000000000000008000000000000,
1,
500000000000000000000000000000000008000000000000,
10000022,
02000020,
10000022,
02020200, //62
3,
500000000000000000000000000000000008000000000000,
1,
500000000000000000000000000000000008000000000000,
12,
12,
7,
00080000, //70
#GOGOSTART
10101110,
2222,
1160,
000000000000000000000000000000000008000000000000,
10101110,
2222,
10011001,
10002220, //78
10101110,
2222,
1160,
000000000008000000000000100000000000100000000000,
1111,
2022,
2222,
1001,
5,
000000000000000000000000000000000008000000000000, //88
#GOGOEND
10110010,
01002000,
10010010,
11002020,
10110010,
01002020,
10110010,
11003030,
0,
0, //98
#END

COURSE:Easy
LEVEL:3
BALLOON:8
SCOREINIT:810,7620
SCOREDIFF:320
#START
1,
0,
1001,
0,
1,
0016,
0,
000000000000000000000008000000000000000000000000, //8
1001,
01,
1001,
01,
1001,
01,
5,
000000000000000000000008000000000000000000000000, //16
1001,
01,
1001,
01,
1001,
01, //22
1,
1,
500000000000000000000008000000000000000000000000,
1,
11,
1,
11,
10020200, //30
1,
1,
500000000000000000000008000000000000000000000000,
1,
11,
1,
11,
12, //38
11,
1,
500000000000000000000008000000000000000000000000,
1,
11,
1,
11,
10020200, //46
11,
1,
500000000000000000000008000000000000000000000000,
1,
11,
1,
11,
12, //54
3,
500000000000000000000000000008000000000000000000,
1,
500000000000000000000000000008000000000000000000,
1001,
01000000,
1001,
01000000, //62
3,
500000000000000000000000000008000000000000000000,
1,
500000000000000000000000000008000000000000000000,
12,
12,
7,
00080000, //70
#GOGOSTART
1110,
2220,
1160,
000000000000000000000000000000000008000000000000,
1110,
2220,
11,
1, //78
1110,
2220,
1160,
000000000008000000000000000000000000000000000000,
11,
2,
22,
1,
5,
000000000000000000000000000008000000000000000000, //88
#GOGOEND
10010010,
02,
10010010,
02,
10010010,
02,
10010010,
01003030,
0,
0, //98
#END
