//TJADB Project
TITLE:Kisoutengai Fushigi wo Douzo
TITLEJA:奇想天外ふしぎをどうぞ
SUBTITLE:--Fushigi Dagashiya Zenitendou
SUBTITLEJA:「ふしぎ駄菓子屋 銭天堂」より
BPM:220
WAVE:Kisoutengai Fushigi wo Douzo.ogg
OFFSET:-1.329
DEMOSTART:36.988 //SONG_ID:zenitd

COURSE:Oni
LEVEL:6
BALLOON:
SCOREINIT:4320
SCOREDIFF:0
#START
#SCROLL 0.75
0,
1212,
101001002202,
100001002202,
101001002202,
1212,
102102100000, //7
1,
200200202200,
1212,
101001002100,
100002200000,
100202202200,
1212,
101001002100, //15
100100102102,
100200102102,
1212,
100200102102,
102200102200,
100100101005,
0,
000000000000000000000008000000000000000000001000,
001100100200,
100100111100, //25
222200,
22,
222200,
22,
222200,
22,
33,
600000000000000000000000000008000000000000000000, //33
#GOGOSTART
101100100202,
102102102200,
102201102201,
102001102200,
100200100202,
100200102202,
102200102200,
300300300001, //41
001100100202,
102102102200,
100020200010100020000100,
001001001100,
101100100202,
1212,
102200102200,
3330, //49
101001100200,
3330,
011011,
30030030,
#GOGOEND
0,
0, //55
#END

COURSE:Hard
LEVEL:3
BALLOON:13,17
SCOREINIT:7640
SCOREDIFF:0
#START
#SCROLL 0.75
0,
1212,
100001002200,
100001002200,
100001002200,
7,
08, //7
1,
02,
1212,
100001000000,
1,
12,
1212,
100001000000, //15
1111,
2222,
1212,
1210,
202200202200,
100100100005,
0,
000000000000000000000008000000000000000000000000,
0,
0, //25
2,
22,
2,
22,
2,
22,
33,
600000000000000000000000000008000000000000000000, //33
#GOGOSTART
11,
100100102200,
11,
100100102200,
11,
1212,
102200102200,
300300300001, //41
0012,
100100102200,
100100100005,
000000000000000000000000000000000008000000000000,
1012,
1212,
102200102200,
3330, //49
1012,
3330,
090000,
000000000000090000000000,
#GOGOEND
8,
0, //55
#END

COURSE:Normal
LEVEL:1
BALLOON:10,13
SCOREINIT:12440
SCOREDIFF:0
#START
#SCROLL 0.75
0,
11,
1,
100001000000,
100001000000,
7,
08, //7
1,
0,
1110,
1,
1,
1,
1110,
1, //15
11,
22,
11,
22,
11,
100000000005,
0,
000000000000000000000008000000000000000000000000,
0,
0, //25
2,
22,
2,
22,
2,
22,
33,
600000000000000000000000000008000000000000000000, //33
#GOGOSTART
11,
1110,
11,
1,
11,
1110,
11,
300300300001, //41
01,
1110,
100000100005,
000000000000000000000000000000000008000000000000,
11,
1110,
11,
3330, //49
11,
3330,
090000,
000000000000090000000000,
#GOGOEND
8,
0, //55
#END

COURSE:Easy
LEVEL:1
BALLOON:7,10
SCOREINIT:23170
SCOREDIFF:0
#START
#SCROLL 0.75
0,
1,
1,
1,
1,
7,
08, //7
1,
0,
1,
1,
1,
0,
1,
1, //15
1,
2,
1,
0,
11,
100000000005,
0,
000000000000000000000008000000000000000000000000,
0,
0, //25
2,
0,
2,
0,
2,
0,
33,
600000000000000000000000000008000000000000000000, //33
#GOGOSTART
1,
1,
11,
1,
1,
1,
11,
300000000001, //41
0,
1,
100000100005,
000000000000000000000008000000000000000000000000,
1,
1,
11,
3, //49
11,
3,
090000,
000000000000090000000000,
#GOGOEND
8,
0, //55
#END
