//TJADB Project
TITLE:Drawin’☆Dream!
TITLEJA:ドローイン☆ドリーム!
SUBTITLE:--Versus feat. Ayame Shirakura (NoWorld)
SUBTITLEJA:Versus feat.白黒黒白(NoWorld)
BPM:130
WAVE:Drawin Dream!.ogg
OFFSET:-2.010
DEMOSTART:64.076

COURSE:Oni
LEVEL:8
SCOREINIT:610
SCOREDIFF:168
#START
1002001000201020,
1022021000102100,
100000000000200000000000200200000200101010200000,
1021000000102000,
1001200000101200,
1021000000102000,
1201201201102000,
1011201210102000,
1012021210102000,
1010201210212010,
3012210210210020,
3011110210210010,
3011110120210010,
3011110000000000,
0010210100102200,
0010210100102200,
0010210100102012,
1002002010102000,
1011210210102100,
1011211210102222,
1001002010221112,
1001000000001020,
1012000010120000,
1010202210102010,
1012000010220000,
1010202210002010,
1022001010221122,
1010221200102020,
1111220100102020,
1002202020102010,
1111202100102220,
1002001000102120,
1002001000102210,
2002022000002210,
1001002001001020,
1021001000102210,
1011201100102010,
1010201100102102,
1001002001001020,
1021021000102210,
1012001001102010,
1020120100211200,
#GOGOSTART
#BPMCHANGE 260
1000200010102000,
1000201000102000,
1000200010102000,
1000201000102000,
1000200010102000,
1000201000102000,
3041,
3000202010111122,
1000200010102000,
1000201000102000,
1000200010102000,
1000201000102000,
3000200010103000,
00102000201010
#GOGOEND
20,
,
03,
10211120,
10210120,
10201120,
10210120,
10211120,
10210120,
10201120,
10221210,
10201120,
10210120,
10201120,
10210120,
10201120,
10210120,
10201120,
10040040,
#BPMCHANGE 130
1001202222202100,
1001202222202100,
1001202222201022,
1201020210000000,
#END

COURSE:Hard
LEVEL:7
SCOREINIT:580
SCOREDIFF:158
#START
1002001000201020,
1011011000101100,
1000200022011110,
1001000000102000,
1001000000102200,
1001000000102000,
2202202202202000,
1001101000102000,
1011001000202000,
1000201110222010,
3011110010010010,
3011110010010010,
3011110010010010,
3011110000000000,
0010200100102200,
0010200100102200,
0010200100102010,
3002002010102000,
1011110110102000,
1011110100102020,
3001002010111011,
1001000000001020,
1022000010220000,
1010202220102010,
1022000010220000,
1010202220002010,
1022001010220020,
1010202200102000,
1110110100102020,
1002202020102010,
1111100100102020,
1002001000101100,
1002001000102220,
2002022000000000,
1001002001001020,
1011001000102220,
1011101100102010,
1010201100102220,
1001002001001020,
1011011000102220,
1022001001102010,
1020110100202200, //42
#GOGOSTART
#BPMCHANGE 260
10201110,
10220110,
10201110,
10220110,
10201110,
10220110,
30004010,
30222220,
10201110,
10220110,
10201110,
10220110,
30201130,
0220222
#GOGOEND
2,
,
03,
10220110,
00220220,
10220110,
00220220,
10220110,
10220220,
10200110,
10222220,
10200220,
10110110,
10200220,
10110110,
10201110,
10110110,
10201110,
10040040,
#BPMCHANGE 130
1001000000000100,
1001000000000100,
1001000000001022,
2201010110000000,
,
,
#END

COURSE:1
LEVEL:6
SCOREINIT:910
SCOREDIFF:273
BALLOON:4,4,10,12,6
#START
1001001000001000,
1001001000101000,
1000002000202000,
5,
,
0082,
2002002002002000,
1001001000202000,
1001001000202000,
1022,
3000000010010010,
3000000010010010,
3000000010010010,
3,
01100220,
01100220,
01100110,
3001001010002000,
01100220,
01100220,
30001011,
1001000000001000,
11001100,
11002010,
11001100,
11002011,
10011002,
2000200200101000,
1010100100202000,
1002002020002000,
7000080700008000,
70000080,
7,
8,
1001001001001000,
1001001000202000,
1000200000101000,
1000200100000000,
1001001001001000,
1001001000202000,
1001001000202000,
1010020200000000,
#GOGOSTART
11020201,
11020201,
11011101,
30304040,
11020201,
11020201,
101000700000000
#GOGOEND
8,
0003,
1001001000202000,
1001005000008000,
1212,
10010220,
1001001000202000,
1001005000008000,
1212,
50000800,
1001000000000000,
1001000000000000,
1001000000001000,
1001010030000000,
,
,
#END

COURSE:0
LEVEL:4
SCOREINIT:940
SCOREDIFF:400
BALLOON:3,3,8,10,5,5,6
#START
10010010,
10010000,
12,
5,
,
08,
20000010,
10010010,
10010000,
12,
31,
31,
31,
3,
00100020,
00100020,
00100010,
30002020,
00100020,
00100010,
30001010,
1,
22,
2220,
22,
2220,
11,
1110,
58,
11,
7000080700008000,
70000080,
7,
8,
1001001000000000,
1001001000000000,
10010010,
78,
1001001000000000,
1001001000000000,
10010010,
78,
#GOGOSTART
1110,
1110,
12,
3333,
1110,
1110,
100000700000000
#GOGOEND
8,
,
10010010,
10050000,
,
80000010,
10010010,
10050080,
1111,
50000800,
1,
1,
1001,
13,
,
,
#END
