//TJADB Project
TITLE:Don-chan Shitai!
TITLEJA:どんちゃんしたい!
SUBTITLE:--Takenoko Boy feat. Hatsune Miku
SUBTITLEJA:タケノコ少年 feat. 初音ミク
BPM:197
WAVE:Don-Chan Shitai.ogg
OFFSET:-1.457
DEMOSTART:54.457

COURSE:Oni
LEVEL:8
BALLOON:
SCOREINIT:1310
SCOREDIFF:0
#START
#MEASURE 2/4
0,
#MEASURE 4/4
33303303,
0030003030112000,
0000000000001111, //4
2020101022112020,
0020001022101000,
2020101022112020,
0020001022101000, //8
1112201122202222,
0020001022101000,
2020101011222000,
1122112210000000, //12
00220120,
0011201120000000,
00220020,
0012201220000000, //16
00220120,
0011201120000000,
00220020,
0011201220002000, //20
11220121,
0020002011102020,
11220121,
0010001022102000, //24
11220121,
0020002022201020,
11220121,
0010221010000000, //28
1212,
10201121,
1000200010102011,
1212, //32
11221122,
1011202210112020,
11221122,
1011202222102221, //36
0333,
3010001120102020,
0333,
3010001120102000, //40
1022102210221022,
1220102011221022,
04404403,
0022111120000000, //44
#GOGOSTART
1011202010112010,
2010202211012020,
1011202210112022,
1010202211112020, //48
1011102210111020,
1010202222102020,
11221122,
1010202210201000, //52
1011102210221020,
1020102210201020,
1022102210221022,
1020102211112020, //56
1011102210111020,
1020102211201020,
12121212,
1020102022101000, //60
33303303,
03033000, //62
#GOGOEND
11210102,
01210010,
1111222211112000,
0020002012102000, //66
00201121,
0020001000121020,
1000201011112020,
0000202211112022, //70
1,
3000003000221122,
12220111,
21121120, //74
1011101111111010,
1011101111101110,
1022202220222022,
0000201122112000, //78
#GOGOSTART
1011102210221020,
1020102210221020,
1022102210221102,
1020102012221020, //82
1011102210111020,
1020102210201120,
1020112010201120,
2020112022101000, //86
33303303,
03033003,
03033003,
03033000, //90
#GOGOEND
2020101022112020,
0020001022101000,
2020101022112020,
0020001022101000, //94
1112201122202222,
0020001022101000,
2020101011222000,
1122112211221120, //98
3,
0,
0, //101
#END

COURSE:Hard
LEVEL:8
BALLOON:
SCOREINIT:1480
SCOREDIFF:0
#START
#MEASURE 2/4
0,
#MEASURE 4/4
33303303,
0030003030222000,
0,
2020102022202020,
0020002022202000,
2020102022202020,
0020002022202000, //8
1110101110101111,
0020002022202000,
2020101011101000,
1110111010000000,
00220120,
0022202220000000,
00220020,
0011101110000000, //16
00220120,
0022202220000000,
00220020,
0011101110002000,
11220121,
0020001011101000,
11220121,
0010002022202000, //24
11220121,
0020002022202000,
11220121,
0020222020000000,
1212,
10201121,
1000200010102022,
2212, //32
11221122,
1011101000101020,
11221122,
1011101000202222,
0333,
3010001110102020,
0333,
3010001110102000,
1011101020222020,
1020101011111010,
04404403,
0022202220000000, //44
#GOGOSTART
11221121,
2010202220202020,
1010202010102022,
2020202220202020,
1011101010111010,
1010202220202020,
11221122,
1010202220201000, //52
1011101020222020,
1020202220201020,
1011101020222020,
1020202220222020,
1011101010111010,
1020202220201020,
12121212,
1020102022202000,
33303303,
03033000, //62
#GOGOEND
11210102,
01210010,
500000000000000000000000000000000008000000000000,
0020002022202000,
00201121,
0020001000111010,
1000201011101050,
000000000000000000000000000000000000000008000000, //70
3,
3000003000101110,
12220111,
21121120,
1011101110111010,
1011101110101110,
1022202220222022,
0000101110102000, //78
#GOGOSTART
1011101010201020,
1020202220222020,
1011101020222020,
22201110,
1011101010111010,
1020202220201020,
12121212,
1020101011101000,
33303303,
03033003,
03033003,
03033000, //90
#GOGOEND
2020102022202020,
0020002022202000,
2020102022202020,
0020002022202000,
1110101110102222,
0020002022202000,
2020101011101000,
1110111011101110,
3,
0,
0, //101
#END

COURSE:Normal
LEVEL:6
BALLOON:
SCOREINIT:2250
SCOREDIFF:0
#START
#MEASURE 2/4
0,
#MEASURE 4/4
30303003,
03003000,
0,
20102022,
02022010,
20102022,
02022010, //8
10110222,
02022010,
22202220,
11111000,
00220020,
02222000,
00220020,
01111000, //16
00220020,
02222000,
00220020,
01111020,
10220011,
02022010,
10220022,
01011020, //24
10220011,
02022010,
10220022,
01022000,
1212,
10201110,
10201110,
1212, //32
11102220,
11010110,
11102220,
11010220,
0333,
30011020,
0333,
30011020,
1212,
11101111,
04004003,
02222000, //44
#GOGOSTART
11102220,
11020220,
11101110,
22220220,
11101110,
11020220,
11101110,
22222020, //52
11102220,
11020220,
11101110,
10111020,
11101110,
11020220,
11101110,
22222020,
30303003,
03003000, //62
#GOGOEND
11010102,
01110010,
500000000000000000000000000000000008000000000000,
02022220,
00202222,
02010111,
10011115,
000000000000000000000000000000000000000008000000, //70
3,
30030220,
10220110,
22020220,
11111110,
11010110,
22222222,
00201110, //78
#GOGOSTART
11102220,
11020220,
11101110,
1112,
11102220,
11020220,
11101110,
22222020,
30303003,
03003003,
03003003,
03003000, //90
#GOGOEND
20102022,
02022010,
20102022,
02022010,
10110222,
02022010,
22202220,
11111111,
3,
0,
0, //101
#END

COURSE:Easy
LEVEL:4
BALLOON:
SCOREINIT:3660
SCOREDIFF:0
#START
#MEASURE 2/4
0,
#MEASURE 4/4
30303003,
03003000,
0,
2022,
02002000,
1011,
01001000, //8
10010020,
02002000,
2222,
1110,
0202,
0220,
0202,
0110, //16
0202,
0220,
0202,
0110,
1201,
02020000,
1202,
01010000, //24
1201,
02020000,
1202,
01002000,
1110,
1011,
1011,
12, //32
1111,
10010000,
2222,
20020000,
0333,
32,
0333,
32,
1111,
1111,
04004003,
0220, //44
#GOGOSTART
1111,
10020000,
1111,
20020000,
1111,
10020000,
1111,
2222, //52
1122,
10020000,
1111,
11,
1122,
10020000,
1111,
2222,
30303003,
03003000, //62
#GOGOEND
10010001,
01010010,
500000000000000000000000000000000008000000000000,
02002020,
00202002,
02010100,
10010105,
000000000000000000000000000000000000000008000000, //70
3,
30030000,
10020010,
20020020,
1111,
10010010,
1222,
0211, //78
#GOGOSTART
1122,
10020020,
1111,
11,
1122,
10020020,
1111,
2222,
30303003,
03003003,
03003003,
03003000, //90
#GOGOEND
2022,
02002000,
1011,
01001000,
10010020,
02002000,
2222,
1111,
3,
0,
0, //101
#END
