//TJADB Project
TITLE:Ni Zhan
TITLEJA:逆戦 NI ZHAN
TITLEZH:逆战
SUBTITLE:--
SUBTITLEJA:
SUBTITLEZH:
BPM:120
WAVE:Ni Zhan.ogg
OFFSET:-2.161
DEMOSTART:46.161

COURSE:Oni
LEVEL:7
BALLOON:
SCOREINIT:2960
SCOREDIFF:0
#START
0,
0,
2010102010102210, //3
#GOGOSTART
1000102210102010,
1000200011102010,
1000102210102010,
1000200010202022, //7
#GOGOEND
1000200010102011,
1010201021201020,
1000200010102011,
1000201000102022, //11
1000200010102011,
1010201021201020,
1000200010102011,
1000201000102022, //15
1010201110102020,
1010201110102220,
1021200011102022,
1000201210102000, //19
1010201110102020,
1010201110102220,
2010102010102210,
3, //23
#GOGOSTART
3000301120111010,
3000301120111020,
1022102010112010,
1000201022102210, //27
3000301120111010,
3000301120111010,
1110222010222010,
1010201000102220, //31
1122112010202011,
2211221010200020,
1110202010222011,
1000201012102011, //35
2211221010222011,
2211221010200020,
1110202010222010,
2010102010102210, //39
6,
000000000000000000000008000000000000000000000000,
1000102210102010,
10201121, //43
#GOGOEND
3,
0,
0, //46
#END

COURSE:Hard
LEVEL:4
BALLOON:
SCOREINIT:4280
SCOREDIFF:0
#START
0,
0,
21021120, //3
#GOGOSTART
10101121,
10201212,
10101121,
10202222, //7
#GOGOEND
10201120,
10202210,
10201120,
10210120, //11
10201120,
10202210,
10201120,
10210120, //15
11211020,
11211020,
11201122,
10210120, //19
11211201,
11211202,
21021120,
3, //23
#GOGOSTART
3000300000111010,
3000300000111010,
10101121,
10202121, //27
3000300000111010,
3000300000111010,
10121121,
1000201000001110, //31
1110201010200011,
11211200,
11101122,
1000201020100011, //35
1010201010200011,
11211200,
10121212,
21021120, //39
6,
000000000000000000000008000000000000000000000000,
10101121,
10202222, //43
#GOGOEND
3,
0,
0, //46
#END

COURSE:Normal
LEVEL:4
BALLOON:15,15
SCOREINIT:8270
SCOREDIFF:0
#START
0,
0,
10010020, //3
#GOGOSTART
10101105,
000000000000000008000000000000000000000000000000,
10101105,
000000000000000000000008000000000000000000000000, //7
#GOGOEND
11,
1110,
10001110,
10020220, //11
11,
1110,
10001110,
10020220, //15
1110,
1110,
1212,
10020220, //19
10101100,
10101100,
10010020,
3, //23
#GOGOSTART
30300110,
30300110,
10101110,
1012, //27
30300110,
30300110,
7,
0802, //31
10101101,
10101100,
10101110,
10011100, //35
10101101,
10101100,
7,
0800, //39
6,
000000000000000000000008000000000000000000000000,
10101105,
000000000000000008000000000000000000000000000000, //43
#GOGOEND
3,
0,
0, //46
#END

COURSE:Easy
LEVEL:3
BALLOON:11,11
SCOREINIT:13250
SCOREDIFF:0
#START
0,
0,
10010010, //3
#GOGOSTART
10101005,
000000000000000008000000000000000000000000000000,
10101005,
000000000000000000000008000000000000000000000000, //7
#GOGOEND
1,
1,
11,
1, //11
2,
2,
22,
2, //15
11,
11,
1011,
1, //19
11,
11,
10010010,
3, //23
#GOGOSTART
3302,
3302,
1110,
1022, //27
3302,
3302,
7,
0802, //31
1110,
1110,
1110,
1020, //35
1110,
1110,
7,
0800, //39
6,
000000000000000000000008000000000000000000000000,
10101005,
000000000000000008000000000000000000000000000000, //43
#GOGOEND
3,
0,
0, //46
#END
