//TJADB Project
TITLE:Otonablue
TITLEJA:オトナブルー
SUBTITLE:--ATARASHI GAKKO!
SUBTITLEJA:新しい学校のリーダーズ
BPM:79.92
WAVE:Otonablue.ogg
OFFSET:-3.166
DEMOSTART:73.21 //SONG_ID:otonab //Shinuchi:
9090/5100/3020/2110

COURSE:Oni
LEVEL:7
BALLOON:30,36
SCOREINIT:680,2230
SCOREDIFF:180
#START
#BARLINEOFF
#MEASURE 3/4
0
#BPMCHANGE 73.985
0
#BPMCHANGE 76.827
0,
#BARLINEON
#MEASURE 4/4
#BPMCHANGE 77.765
70000008,
#BPMCHANGE 130
1012101221104000,
1010201010110120,
1020120211120120,
1010201010110120,
0000400011112110, //7
1010210110102000,
1010210111102000,
1010210110102000,
1010210121102010,
1010201011102020,
1010210101102020,
1010201011102220,
1000000010102220,
1010201010110120,
1020120211120120, //17
1010210110102000,
1010210111102000,
1010210110102000,
1010210121102010,
1010201011102020,
1010210101102020,
1010201011102020,
1010210020004000, //25
500000000000000008000000500000000000000008000000,
1022102210221122,
1010202010101122,
1011020100012000,
1011020100011000,
1011022010102210,
3000300030222110, //32
#GOGOSTART
1011210110102020,
1011220212011020,
3000102212021020,
3000102212021120,
#GOGOEND
11221122,
#GOGOSTART
1011210110102020,
1011210110102020,
1011022010102210,
3000300030222110, //41
1011210110102020,
1011220212011020,
3000102212021020,
3000102212021120,
11221122,
#GOGOEND
10002220,
10002220,
1020201020221110, //49
#BPMCHANGE 104
07,
00000008,
#BPMCHANGE 130
1010201010110120,
1020120211120120,
1010201010110120,
0000401210101000,
0, //56
#END

COURSE:Hard
LEVEL:4
BALLOON:20,30
SCOREINIT:680,3220
SCOREDIFF:190
#START
#BARLINEOFF
#MEASURE 3/4
0
#BPMCHANGE 73.985
0
#BPMCHANGE 76.827
0,
#BARLINEON
#MEASURE 4/4
#BPMCHANGE 77.765
70000008,
#BPMCHANGE 130
1020101110104000,
1010201010010020,
0020110011010020,
1010201010010020,
0000400010101110, //7
1010200110102000,
1010200220102000,
1010200110102000,
1010200220102000,
10211022,
1010110100002000,
10221122,
10001120,
1010201010010020,
0020100010010020, //17
1010200110102000,
1010200220102000,
1010200110102000,
1010200220102000,
10211022,
1010110100002000,
10221122,
1024, //25
500000000000000008000000500000000000000008000000,
12121212,
11111020,
1001020100002000,
1001020100002000,
1002002010102000,
3330, //32
#GOGOSTART
1010200110102000,
1000200011010000,
3000102011010000,
3000102011010000,
#GOGOEND
11221122,
#GOGOSTART
1010200110102000,
1010200110102000,
1011001010002000,
3330, //41
1010200110102000,
1000200011010000,
3000102011010000,
3000102011010000,
11221122,
#GOGOEND
10002220,
10002220,
12212211, //49
#BPMCHANGE 104
07,
00000008,
#BPMCHANGE 130
1010201010010020,
0020110011010020,
1010201010010020,
00401110,
0, //56
#END

COURSE:Normal
LEVEL:4
BALLOON:16,19
SCOREINIT:900,5600
SCOREDIFF:315
#START
#BARLINEOFF
#MEASURE 3/4
0
#BPMCHANGE 73.985
0
#BPMCHANGE 76.827
0,
#BARLINEON
#MEASURE 4/4
#BPMCHANGE 77.765
70000008,
#BPMCHANGE 130
10101130,
10101002,
0210,
10101002,
00401110, //7
1210,
1220,
1210,
1222,
1212,
1102,
1212,
1012,
10201002,
0210, //17
1210,
1220,
1210,
1222,
1212,
1102,
1212,
1024, //25
500000000000000008000000500000000000000008000000,
1111,
11101000,
1002,
1000000100002000,
1011,
3330, //32
#GOGOSTART
10201110,
1110,
3210,
3210,
#GOGOEND
11101110,
#GOGOSTART
10201110,
10201110,
10011010,
3330, //41
10201110,
1110,
3210,
3210,
11101110,
#GOGOEND
1022,
1022,
1021, //49
#BPMCHANGE 104
07,
00000008,
#BPMCHANGE 130
10101002,
0210,
10101002,
00401110,
0, //56
#END

COURSE:Easy
LEVEL:2
BALLOON:14,12
SCOREINIT:930,10500
SCOREDIFF:620
#START
#BARLINEOFF
#MEASURE 3/4
0
#BPMCHANGE 73.985
0
#BPMCHANGE 76.827
0,
#BARLINEON
#MEASURE 4/4
#BPMCHANGE 77.765
70000008,
#BPMCHANGE 130
0,
1110,
02,
1110,
0400, //7
1,
11,
1,
11,
1011,
1,
1011,
1,
1110,
02, //17
1,
11,
1,
11,
1011,
1,
1011,
1004, //25
500000000000000000000000000008000000000000000000,
1111,
11,
1,
1,
11,
3330, //32
#GOGOSTART
1002,
11,
3,
3,
#GOGOEND
1110,
#GOGOSTART
1002,
1002,
11,
3330, //41
1002,
11,
3,
3,
1110,
#GOGOEND
12,
12,
12, //49
#BPMCHANGE 104
07,
008,
#BPMCHANGE 130
1110,
02,
1110,
0400,
0, //56
#END
