//TJADB Project
TITLE:Subtitle
TITLEJA:Subtitle
SUBTITLE:--
SUBTITLEJA:
BPM:65
WAVE:Subtitle.ogg
OFFSET:-2.738
DEMOSTART:70.004 //shinuchi:
11820/7600/5200/3410

COURSE:Oni
LEVEL:7
BALLOON:17,21
SCOREINIT:1060,3560
SCOREDIFF:315
#START
20202220,
22222220,
20202220,
200202200202200000200200,
10221012,
10121000, //6
100200202202100200200100,
100200202202100100200000,
100200202202100200200100,
100200200202100000000000,
100202100102201100200101,
100202102102111102111101,
100202100102201100200101,
102111102102100222200222, //14
#MEASURE 2/4
200111100000,
#MEASURE 4/4
100000200000200202200200,
7082,
101000200000100201100200,
70000800, //19
#GOGOSTART
102201200102201102102100,
102201200102201102111111,
100001202102201102111111,
100001202100111111103000,
102201200102201102102100,
100020200000500000000000000000000008000010100010, //25
000000300000300300302111,
100300300300101000101000,
100111102111102102102100,
100111102111102102102100,
#GOGOEND
1,
0,
0, //32
#END

COURSE:Hard
LEVEL:5
BALLOON:13,16
SCOREINIT:1210,5650
SCOREDIFF:425
#START
20202220,
20202220,
20202220,
22202022,
10201022,
10221000, //6
10201220,
10201120,
10201220,
10221000,
100200200100101100200100,
100200200100101100100200,
100200200100101100200100,
100200100101100202200202, //14
#MEASURE 2/4
200000300000600000000008,
#MEASURE 4/4
00202222,
7082,
101000200000100200100200,
70000800, //19
#GOGOSTART
100000200100201100200100,
100000200100201100100100,
100000200100201100200100,
100000200100101101103000,
100000200100201100200100,
100000100000500000000000000000000008000000000000, //25
00303330,
33333030,
100200200100101100101100,
100200200100101100101100,
#GOGOEND
1,
0,
0, //32
#END

COURSE:Normal
LEVEL:3
BALLOON:9,11
SCOREINIT:1170,8370
SCOREDIFF:545
#START
2022,
2220,
2022,
2220,
1012,
1210, //6
10201110,
1210,
10201110,
1210,
10111011,
10111111,
10111011,
11111020, //14
#MEASURE 2/4
200000000000600000000008,
#MEASURE 4/4
0022,
7082,
1211,
70000800, //19
#GOGOSTART
10211011,
10201011,
10211011,
10211020,
10211011,
100000000000500000000000000000000008000000000000, //25
00303330,
33333030,
10222011,
10222011,
#GOGOEND
1,
0,
0, //32
#END

COURSE:Easy
LEVEL:2
BALLOON:7,9
SCOREINIT:1210,12730
SCOREDIFF:825
#START
2022,
22,
2022,
22,
12,
1220, //6
1011,
12,
1011,
12,
10111000,
10111010,
10111010,
10111020, //14
#MEASURE 2/4
200000000000600000000008,
#MEASURE 4/4
0011,
78,
1011,
70000800, //19
#GOGOSTART
1212,
500000000000000000000008000000000000000000000000,
1212,
1110,
1212,
500000000000000000000000000000000008000000000000, //25
00303330,
600000000000000000000000000000000008000000000000,
1221,
1221,
#GOGOEND
1,
0,
0, //32
#END
