//TJADB Project
TITLE:Yozakura Bladerz
TITLEJA:夜櫻ブレヰダアズ
SUBTITLE:--Ponkichi
SUBTITLEJA:ぽんきち
BPM:167
WAVE:Yozakura Bladerz.ogg
OFFSET:-1.684
DEMOSTART:36.167

COURSE:Oni
LEVEL:9
BALLOON:15,10,48,14,40
SCOREINIT:540
SCOREDIFF:110
#START
1001001000200010,
0010102100001010,
1001002000202010,
0020201020000011,
1001001000200010,
0010102100202010,
4003004003002106,
000000000000000000000008000000000000100100200200,//8
#GOGOSTART
1011201011221120,
0020102100002122,
1010202100102012,
1120201200001122,
1011201011221120,
0030040030040030,
2211212000300070,
0008,//16
#GOGOEND
1001001000200010,
0020102100001020,
1000102100102010,
12211020,
1001001000200010,
0020102100001021,
0000202100001025,
000000000000000000008000000000001010100000000000,
1001201000202210,
0020102100102221,
0010222100102210,
1020201110120000,
1001201000202210,
0020102100101221,
0010122100101227,
000000000000008000000011,
100211200000,
100000202020100000000011,
100211200222,
100000201010200000000011,
100211200200,
100211200200,
7,
,
,
8000000011222222,
#MEASURE 15/16
,
#MEASURE 4/4
0030040030040030,//44
#GOGOSTART
1001201200102011,
1010202102102122,
1001201200102011,
1010221030004022,
1001201200102011,
1010202102102122,
1003004003002102,
000000200000200000500000000000000008000000100100,
1001211200102011,
1010202102122122,
1001211200102011,
1010221030004022,
1001211200102011,
1010202102122122,
1003004003002106,
0000000000000000000000000000080000000000000000000,//60
#GOGOEND
1011202000202010,
0011221000100100,
1011112000202010,
0020020020002212,
1121221200102010,
0010010020020020,//66
#GOGOSTART
3004003004001207,
0008,
1121122001121120,
0112121211212110,
202010202010100000200100000000100000200100200000,
0112121211121210,
2112112112112110,
2112112112112210,
3003004003002106,
000000000000000000000000000008000000000000100100,//76
#GOGOEND
#BPMCHANGE 158
#SCROLL 1.06
1002002000100020,
0020102200202010,
#MEASURE 3/4
#BPMCHANGE 147
#SCROLL 1.14
21
#BPMCHANGE 138
#SCROLL 1
2
#BPMCHANGE 120
2,
#MEASURE 2/4
#BPMCHANGE 121.25
1,
#MEASURE 4/4
#BPMCHANGE 119.45
7,
08,
#END

COURSE:Hard
LEVEL:8
BALLOON:9,6,43,22
SCOREINIT:510
SCOREDIFF:130
#START
1001001000200010,
0010101100001010,
1001002000202010,
0020201010000011,
1001001000200010,
0010101100202010,
3003004004001106,
000000000000000000000000000008000000000000000000,//8
#GOGOSTART
1011101011101110,
0010102200000000,
1010202200101022,
0010102200001011,
1011101011102220,
0030030040040030,
1011101000300070,
0008,//16
#GOGOEND
1001001000200010,
0020101100001020,
1000101100102010,
10211020,
1001001000200010,
0020101100001011,
0000101100001015,
000000000000000000008000000000000000000000000000,
1001001000202010,
0020101100002011,
0000201100002010,
1020201100000000,
1001001000202010,
0020201100002011,
0000201100002017,
08,
1120,
1210,
1122,
1210,
1222,
1222,
7,
,
,
,
#MEASURE 15/16
8,
#MEASURE 4/4
0030030040040030,//44
#GOGOSTART
1001101000102010,
0010201100102010,
1001101000102010,
0010201030004011,
1001101000102010,
0010201100102010,
1003004004001101,
000000200000200000500000000000000008000000100100,
1001101000102010,
0010201100102020,
1001101000102010,
0010201030004011,
1001101000102010,
0010201100202010,
1003004004001105,
000000000000000000000000000008000000000000000000,//60
#GOGOEND
10120221,
0010101000100100,
10120221,
0020020020002000,
1010201100102010,
0010010020020020,//66
#GOGOSTART
3003004004001105,
000000000000000000000000000008000000000000000000,
1010111000102220,
0010111010101110,
1010111100102220,
0010111010101110,
2011102011101110,
1010111011102220,
3003004004001106,
000000000000000000000000000008000000000000000000,//76
#BPMCHANGE 160
#SCROLL 1.05
#GOGOEND
1001002000100010,
#BPMCHANGE 155
#SCROLL 1.08
0010101100202010,
#BPMCHANGE 150
#SCROLL 1.12
#MEASURE 3/4
11
#BPMCHANGE 130
2
#BPMCHANGE 120
#SCROLL 1.05
2,
#MEASURE 2/4
1,
#MEASURE 4/4
7,
08,
,
#END

COURSE:Normal
LEVEL:7
BALLOON:8,5,36,19
SCOREINIT:650
SCOREDIFF:150
#START
1001001000100010,
0010100100001010,
1001001000100010,
02201000,
1001001000200010,
0010100100101000,
3003004004003006,
000000000000000000000000008000000000000000000000,//8
#GOGOSTART
10110101,
0010100200000000,
1010200100102000,
1010200100102000,
10110101,
0030030040040030,
30030307,
0008,//16
#GOGOEND
10010001,
,
10010000,
1012,
10010001,
0000000000000001,
0000000100000001,
,
10010201,
0000100100001001,
0000100100001000,
1000200100000000,
10010201,
0000100100001001,
0000100100001007,
08,
1,
12,
1,
21,
12,
12,
7,
,
,
,
#MEASURE 15/16
8,
#MEASURE 4/4
000000600000000000000000000000000008000000000000,//44
#GOGOSTART
1001001000100010,
0010200100102000,
1001001000100010,
01203040,
1001001000100010,
0010200100102000,
3003004004003001,
000000200000200000500000000000000008000000000000,
1001002000100010,
0010200100102000,
1001002000100010,
01203040,
1001002000100010,
0010200100102000,
3003004004003006,
000000000000000000000000000008000000000000000000,//60
#GOGOEND
10120221,
0010001000100100,
10120221,
0010010010002000,
10120221,
0010010020020020,//66
#GOGOSTART
3003004004003006,
000000000000000000000000000008000000000000000000,
10110122,
01101101,
10101122,
01101020,
1001001001002000,
1001001001002000,
3003004004003006,
000000000000000000000000000008000000000000000000,//76
#BPMCHANGE 160
#SCROLL 1.05
#GOGOEND
10020101,
#BPMCHANGE 155
#SCROLL 1.08
0010100100000000,
#BPMCHANGE 150
#SCROLL 1.12
#MEASURE 3/4
11
#BPMCHANGE 130
2
#BPMCHANGE 120
#SCROLL 1.05
2,
#MEASURE 2/4
1,
#MEASURE 4/4
7,
08,
,
#END

COURSE:Easy
LEVEL:5
BALLOON:6,4,28,15
SCOREINIT:510
SCOREDIFF:100
#START
1001001000100010,
0000100100000000,
1001001000100010,
0220,
1001001000100010,
0000100100000000,
3003003003003006,
000000000000000000000000008000000000000000000000,//8
#GOGOSTART
10010101,
0000100100000000,
10010101,
0000200200000000,
10010101,
000000600000000000000000000000000008000000000000,
10030307,
0008,//16
#GOGOEND
10010001,
,
10010000,
1011,
10010001,
0000000000000005,
000000008000000000000500000000008000000000000500,
000000000000000000008000000000000000000000000000,
10010101,
0000100100000005,
000000008000000000000500000000008000000000000000,
100000000000100000000500000000008000000000000000,
10010101,
000000000000100000000500000000008000000000000500,
000000008000000000000500000000008000000000000700,
08,
1,
1,
11,
2,
11,
22,
7,
,
,
,
#MEASURE 15/16
8,
#MEASURE 4/4
000000600000000000000000000000000008000000000000,//44
#GOGOSTART
1001001000100010,
0000100100000000,
1001001000100010,
0220,
1001001000100010,
0000100100000000,
3003003003003005,
000000000000000000000000000008000000000000000000,
1001001000100010,
0000200200000000,
1001001000100010,
0220,
1001001000100010,
0000200200000000,
3003003003003006,
000000000000000000000000000008000000000000000000,//60
#GOGOEND
10010101,
0000001000100100,
10010101,
0020020020000000,
10010101,
0020020020000000,//66
#GOGOSTART
3003004004003006,
000000000000000000000000000008000000000000000000,
10010101,
00010101,
10010101,
00010101,
500000000000000000000000000000000008000000000000,
500000000000000000000000000000000008000000000000,
3003004004003006,
000000000000000000000000000008000000000000000000,//76
#BPMCHANGE 160
#SCROLL 1.05
#GOGOEND
10020101,
#BPMCHANGE 155
#SCROLL 1.08
0000100100000000,
#BPMCHANGE 150
#SCROLL 1.12
#MEASURE 3/4
11
#BPMCHANGE 130
2
#BPMCHANGE 120
#SCROLL 1.05
2,
#MEASURE 2/4
1,
#MEASURE 4/4
7,
08,
,
#END
