//TJADB Project
TITLE:Dodododo-donderful!
TITLEJA:ドドドドドンだフル!
SUBTITLE:--Yuri Misumi feat. Katsuyuki Oda
BPM:200
WAVE:Dodododo-donderful!.ogg
OFFSET:-2.694
DEMOSTART:24.298

COURSE:Edit
LEVEL:10
BALLOON:2,7,2,7,5,7,7,10
SCOREINIT:410
SCOREDIFF:93
#START
#SCROLL 2
,
,
3,
,
11,
#BPMCHANGE 199.49
1111111111117080,
#SCROLL 1
#BPMCHANGE 200
30221121,
#SCROLL 0.99
#BPMCHANGE 200.51
01121211,
#SCROLL 1
#BPMCHANGE 199.11
01221121,
#SCROLL 0.99
#BPMCHANGE 200.322
0010102010201110,
#BPMCHANGE 200.39
10221121,
#SCROLL 1
#BPMCHANGE 199.81
01121211,
#BPMCHANGE 199.36
01221121,
#SCROLL 0.99
#BPMCHANGE 201.04
01127008,
#SCROLL 1.99
#BPMCHANGE 200.26
300000000200100200100000200100200100500000008000,
#BPMCHANGE 199.91
#SCROLL 2
300000200100200100200100200100200100500000008000,
300000200000100200100200100000200100200500008000,
#BPMCHANGE 198.89
300000200000100200100200100000200100200700008000,
#BPMCHANGE 200.03
#SCROLL 0.99
3000202210102010,
#SCROLL 1
#BPMCHANGE 199.97
0010102210221010,
#BPMCHANGE 199.76
0010202210102010,
0010102210221111,
1000202210102010,
0011102210221010,
#SCROLL 0.99
#BPMCHANGE 201
0010202210102010,
0011102270000080,
#SCROLL 2
#BPMCHANGE 200
32020202,
000000200000000000200100200100200100200500008000,
32020202,
000000200100100200100100200100100500000000008000,
32020202,
100020001000200010002000100020000500000000008000,
32021202,
#BPMCHANGE 198.03
12120708,
#BPMCHANGE 201.3
#SCROLL 0.99
3000202211102010,
#SCROLL 1
#BPMCHANGE 199.72
0011102211221010,
0010202211102010,
0011102211221111,
#SCROLL 0.99
#BPMCHANGE 200.17
1000202211102010,
0011102211221010,
0010202211102010,
#BPMCHANGE 201.04
0011102211111111,
#SCROLL 1
#BPMCHANGE 199.74
0000402211102010,
#BPMCHANGE 199.26
0011102211221010,
#BPMCHANGE 201.01
#SCROLL 0.99
0010202211102010,
#BPMCHANGE 200
#SCROLL 1
0011102211221111,
#BPMCHANGE 198.47
0000402211102010,
#BPMCHANGE 201
#SCROLL 0.99
0011102211221010,
#SCROLL 1
#BPMCHANGE 200
0010202211102010,
#BPMCHANGE 201.5
0011102270000080,
#SCROLL 2
#BPMCHANGE 199.53
300000200000100200100000200100200100200500008000,
300000200200100100200200100100200200500000008000,
#BPMCHANGE 200.52
#SCROLL 1.99
300000200100200100200100200100200100200500008000,
#BPMCHANGE 199.48
#SCROLL 2
300000200200100100100100200200200200500000008000,
#BPMCHANGE 199.74
3011201210211120,
1022102120122210,
#BPMCHANGE 201.04
#SCROLL 1.99
2121212111111111,
#BPMCHANGE 200
#SCROLL 2
500000000000000008000000700000000000000000008000,
#MEASURE 8/4
#BPMCHANGE 198.98
#SCROLL 0.5
1110101021101020
#BPMCHANGE 200
0010211011101000,
#BPMCHANGE 199.66
11101010211010200010211021101000,
1110102021101020
#BPMCHANGE 200
0010211011101000,
11101020211010200010211021101000,
11101010111010100010111011101111,
#MEASURE 4/4
#BPMCHANGE 201.04
11030303,
#BARLINEOFF
#SCROLL 1
#BPMCHANGE 198.47
000000000000111111111110,
#GOGOSTART
#BARLINEON
#BPMCHANGE 201.56
#SCROLL 0.99
3000202211102210,
#BPMCHANGE 198.97
#SCROLL 1
0011102212212210,
#BPMCHANGE 201.56
#SCROLL 0.99
0011202211102210,
#BPMCHANGE 200.26
0011102211221111,
#BPMCHANGE 198.21
#SCROLL 1
1000202211102210,
#BPMCHANGE 200.35
#SCROLL 0.99
0011102212212210,
#BPMCHANGE 198.89
#SCROLL 1
0011202211102210,
#BPMCHANGE 200.52
#SCROLL 0.99
0011102211111111,
#BPMCHANGE 200.13
1011202211102210,
2011102212212210,
#BPMCHANGE 200
#SCROLL 1
2011202211102210,
2011102211221111,
1011202211112210,
2011102212212210,
2011202211112210,
#BPMCHANGE 200.91
#SCROLL 0.99
2211221170000000,
#BPMCHANGE 200
#SCROLL 2
8000402211112210,
2011102212212210,
2011202211112210,
2211112211221111,
#BPMCHANGE 198
#SCROLL 2.01
0000402211112211,
#BPMCHANGE 201
#SCROLL 1.99
2211112212212211,
2211222211112211,
#BPMCHANGE 200
#SCROLL 2
2211221122222222,
1111111122100030,
#GOGOEND
#END

COURSE:Oni
LEVEL:5
BALLOON:8,10,8,10,8,10,8,12
SCOREINIT:840
SCOREDIFF:208
#START
,
,
1,
,
1010,
#BPMCHANGE 199.49
500000000000000000000000000000000008000000000000,
#BPMCHANGE 200
10101025,
#BPMCHANGE 200.51
000000000000000000000000000008000000000000100000,
#BPMCHANGE 199.11
00101025,
#BPMCHANGE 200.322
000000000000000000000000000000000008000000000000,
#BPMCHANGE 200.39
10101025,
#BPMCHANGE 199.81
000000000000000000000000000008000000000000100000,
#BPMCHANGE 199.36
00101025,
#BPMCHANGE 201.04
000000000000000000000000000000000008000000000000,
#BPMCHANGE 200.26
0202,
#BPMCHANGE 199.91
0202,
0202,
#BPMCHANGE 199.89
000000000000200000000000000000500000008000000000,
#BPMCHANGE 200.03
10101025,
#BPMCHANGE 199.97
000000000000000000000000000008000000000000100000,
#BPMCHANGE 199.76
00101025,
000000000000000000000000000000000008000000000000,
10101025,
000000000000000000000000000008000000000000100000,
#BPMCHANGE 201
00101025,
000000000000000000000000000000000008000000000000,
#BPMCHANGE 200
10201120,
10201120,
10201121,
01201120,
10201120,
10201120,
12111211,
#BPMCHANGE 198.03
100000200000100000100000000000500000008000000000,
#BPMCHANGE 201.3
10101025,
#BPMCHANGE 199.72
000000000000000000000000000008000000000000100000,
00101025,
000000000000000000000000000000000008000000000000,
#BPMCHANGE 200.17
10101025,
000000000000000000000000000008000000000000100000,
00101025,
#BPMCHANGE 201.04
000000000000000000000000000000000008000000000000,
#BPMCHANGE 199.74
00301025,
#BPMCHANGE 199.26
000000000000000000000000000008000000000000100000,
#BPMCHANGE 201.01
00101025,
#BPMCHANGE 200
000000000000000000000000000000000008000000000000,
#BPMCHANGE 198.47
00301025,
#BPMCHANGE 201
000000000000000000000000000008000000000000100000,
#BPMCHANGE 200
00101025,
#BPMCHANGE 201.5
000000000000000000000000000000000008000000000000,
#BPMCHANGE 199.53
01212001,
21210120,
#BPMCHANGE 200.52
01212012,
#BPMCHANGE 199.48
0010200000111111,
#BPMCHANGE 199.74
01212001,
21210120,
#BPMCHANGE 201.04
01212012,
#BPMCHANGE 200
0010200000111111,
#BPMCHANGE 198.98
11020102,
#BPMCHANGE 200
01201010,
#BPMCHANGE 199.66
11020102,
01201110,
1110002000100020,
#BPMCHANGE 200
01201010,
1110002000100020,
0010200011101000,
1110002220001110,
0022200011101110,
#BPMCHANGE 201.04
110101003,
#BPMCHANGE 198.47
,
#GOGOSTART
#BPMCHANGE 201.56
10101027,
#BPMCHANGE 198.97
00008001,
#BPMCHANGE 201.56
00101027,
#BPMCHANGE 200.26
00000800,
#BPMCHANGE 198.21
10101027,
#BPMCHANGE 200.35
00008001,
#BPMCHANGE 198.89
00101027,
#BPMCHANGE 200.52
00000800,
#BPMCHANGE 200.13
10101027,
00008001,
#BPMCHANGE 200
00101027,
00000800,
10101027,
00008001,
00101027,
#BPMCHANGE 200.91
00000800,
#BPMCHANGE 200
00302121,
21212121,
21212121,
2010201022102210,
#BPMCHANGE 198
00302121,
#BPMCHANGE 201
21212121,
21212121,
#BPMCHANGE 200
2010201022112211,
10001101,
#GOGOEND
#END

COURSE:Hard
LEVEL:6
BALLOON:7,9,7,9,7,9,7,10
SCOREINIT:1030
SCOREDIFF:280
#START
,
,
1,
,
1010,
#BPMCHANGE 199.49
50000080,
#BPMCHANGE 200
10101025,
#BPMCHANGE 200.51
00000801,
#BPMCHANGE 199.11
00101025,
#BPMCHANGE 200.32
00000080,
#BPMCHANGE 200.39
10101025,
#BPMCHANGE 199.808
00000801,
#BPMCHANGE 199.359
00101025,
#BPMCHANGE 201.037
00000080,
#BPMCHANGE 200.257
0202,
#BPMCHANGE 199.915
0202,
0202,
#BPMCHANGE 199.892
0000200000508000,
#BPMCHANGE 200.034
10101025,
#BPMCHANGE 199.966
00000801,
#BPMCHANGE 199.761
00101025,
00000080,
10101025,
00000801,
#BPMCHANGE 201.001
00101025,
00000080,
#BPMCHANGE 200
10201000,
10201110,
10201000,
10201110,
10201000,
10201110,
0101,
#BPMCHANGE 198.028
0020000000508000,
#BPMCHANGE 201.297
10101025,
#BPMCHANGE 199.722
00000801,
00101025,
00000080,
#BPMCHANGE 200.173
10101025,
00000801,
00101025,
#BPMCHANGE 201.037
00000080,
#BPMCHANGE 199.744
00301025,
#BPMCHANGE 199.262
00000801,
#BPMCHANGE 201.006
00101025,
#BPMCHANGE 200
00000080,
#BPMCHANGE 198.466
00301025,
#BPMCHANGE 201.001
00000801,
#BPMCHANGE 200
00101025,
#BPMCHANGE 201.5
00000080,
#BPMCHANGE 199.53
01111010,
01111010,
#BPMCHANGE 200.52
01111010,
#BPMCHANGE 199.48
0000100000111000,
#BPMCHANGE 199.744
01111010,
01111010,
#BPMCHANGE 201.037
0111101,
#BPMCHANGE 200
0000100000111000,
#BPMCHANGE 198.98
11020102,
#BPMCHANGE 200
0010,
#BPMCHANGE 199.66
11020102,
0010,
11020102,
#BPMCHANGE 200
0010,
11020102,
0010,
11022011,
02201000,
#BPMCHANGE 201.037
11020203,
#BPMCHANGE 198.466
,
#BPMCHANGE 201.96
#GOGOSTART
10101027,
#BPMCHANGE 198.97
00008001,
#BPMCHANGE 201.56
00101027,
#BPMCHANGE 200.257
00000800,
#BPMCHANGE 198.21
10101027,
#BPMCHANGE 200.35
00008001,
#BPMCHANGE 198.89
00101027,
#BPMCHANGE 200.52
00000800,
#BPMCHANGE 200.13
10101027,
00008001,
#BPMCHANGE 200
00101027,
00000800,
10101027,
00008001,
00101027,
#BPMCHANGE 200.91
00000800,
#BPMCHANGE 200
00301011,
02020200,
00101011,
02020200,
#BPMCHANGE 198
00301011,
#BPMCHANGE 201.001
02020200,
00101011,
#BPMCHANGE 200
02020200,
00001101,
#GOGOEND
,
,
#END

COURSE:Normal
LEVEL:5
BALLOON:4,5,4,5,4,5,4,5,18
SCOREINIT:1040
SCOREDIFF:320
#START
,
,
1,
,
11,
#BPMCHANGE 199.491
5080,
#BPMCHANGE 200
11,
#BPMCHANGE 200.511
5080,
#BPMCHANGE 199.108
11,
#BPMCHANGE 200.322
5080,
#BPMCHANGE 200.39
11,
#BPMCHANGE 199.808
5080,
#BPMCHANGE 199.359
22,
#BPMCHANGE 201.037
5080,
#BPMCHANGE 200.257
0202,
#BPMCHANGE 199.915
0202,
0202,
#BPMCHANGE 199.892
0220,
#BPMCHANGE 200.034
1110,
#BPMCHANGE 199.966
1110,
#BPMCHANGE 199.761
1110,
1110,
2220,
2220,
#BPMCHANGE 201.001
2220,
2220,
#BPMCHANGE 200
1010,//29
1112,
1010,
1112,
2020,
2221,
,
#BPMCHANGE 198.028
,
#BPMCHANGE 201.297
1,
#BPMCHANGE 199.722
1120,
1,
1120,
#BPMCHANGE 200.173
2,
2210,
20000005,
#BPMCHANGE 201.037
00000080,
#BPMCHANGE 199.744
0301,
#BPMCHANGE 199.262
1,
#BPMCHANGE 201.006
1101,
#BPMCHANGE 200
1,
#BPMCHANGE 198.466
0301,
#BPMCHANGE 201.001
1,
#BPMCHANGE 200
1101,
#BPMCHANGE 201.5
1,
#BPMCHANGE 199.53
1110,
1110,
#BPMCHANGE 200.52
1212,//55
#BPMCHANGE 199.48
1110,
#BPMCHANGE 199.744
1110,
1110,
#BPMCHANGE 201.037
1212,
#BPMCHANGE 200
1110,
#BPMCHANGE 198.98
1,
#BPMCHANGE 200
1,
#BPMCHANGE 199.66
22,
22,
1,
#BPMCHANGE 200
1,
1121,
1120,
1,
1,
#BPMCHANGE 201.037
1011,
#BPMCHANGE 198.466
3,
#BPMCHANGE 201.96
#GOGOSTART
10101007,
#BPMCHANGE 198.97
00008000,
#BPMCHANGE 201.56
10101007,
#BPMCHANGE 200.257
00000800,
#BPMCHANGE 198.21
10101007,
#BPMCHANGE 200.35
00008000,
#BPMCHANGE 198.89
10101007,
#BPMCHANGE 200.52
00000800,
#BPMCHANGE 200.13
30403007,
00008000,
#BPMCHANGE 200
30403007,
00008000,
30403007,
00008000,
10201007,
#BPMCHANGE 200.91
00000800,
#BPMCHANGE 200
0301,
0111,
0101,
0111,
#BPMCHANGE 198
0900,
#BPMCHANGE 201.001
,
,
#BPMCHANGE 200
0000008,
,
#GOGOEND
,
,
#END

COURSE:Easy
LEVEL:3
BALLOON:5,2,2,2,2,2,2,2,2,12
SCOREINIT:770
SCOREDIFF:223
#START
,
,
1,
,
1,
#BPMCHANGE 199.491
5080,
#BPMCHANGE 200
1,
#BPMCHANGE 200.511
5080,
#BPMCHANGE 199.108
1,
#BPMCHANGE 200.322
5080,
#BPMCHANGE 200.39
1,
#BPMCHANGE 199.808
5080,
#BPMCHANGE 199.359
2,
#BPMCHANGE 201.037
5080,
#BPMCHANGE 200.257
2,
#BPMCHANGE 199.915
2,
2,
#BPMCHANGE 199.892
2,
#BPMCHANGE 200.034
1010,
#BPMCHANGE 199.966
1,
#BPMCHANGE 199.761
1010,
1,
22,
2,
#BPMCHANGE 201.001
22,
2,
#BPMCHANGE 200
1010,//29
1110,
1010,
1110,
2020,
2220,
7,
#BPMCHANGE 198.028
0008,
#BPMCHANGE 201.297
1,
#BPMCHANGE 199.722
1110,
1,
1110,
#BPMCHANGE 200.173
2,
2220,
20000005,
#BPMCHANGE 201.037
00000080,
#BPMCHANGE 199.744
0301,
#BPMCHANGE 199.262
1,
#BPMCHANGE 201.006
0101,
#BPMCHANGE 200
1,
#BPMCHANGE 198.466
0301,
#BPMCHANGE 201.001
1,
#BPMCHANGE 200
0101,
#BPMCHANGE 201.5
1,
#BPMCHANGE 199.53
1110,
1110,
#BPMCHANGE 200.52
1111,//55
#BPMCHANGE 199.48
1110,
#BPMCHANGE 199.744
1110,
1110,
#BPMCHANGE 201.037
1111,
#BPMCHANGE 200
1110,
#BPMCHANGE 198.98
1,
#BPMCHANGE 200
1,
#BPMCHANGE 199.66
2,
2,
1,
#BPMCHANGE 200
1,
2,
22,
1,
1,
#BPMCHANGE 201.037
11,
#BPMCHANGE 198.466
3,
#BPMCHANGE 201.96
#GOGOSTART
10101007,
#BPMCHANGE 198.97
00008000,
#BPMCHANGE 201.56
10101007,
#BPMCHANGE 200.257
00000800,
#BPMCHANGE 198.21
10101007,
#BPMCHANGE 200.35
00008000,
#BPMCHANGE 198.89
10101007,
#BPMCHANGE 200.52
00000800,
#BPMCHANGE 200.13
30003007,
00008000,
#BPMCHANGE 200
30003007,
00008000,
30003007,
00008000,
10101007,
#BPMCHANGE 200.91
00000800,
#BPMCHANGE 200
0301,
0110,
0101,
0110,
#BPMCHANGE 198
0900,
#BPMCHANGE 201.001
,
,
#BPMCHANGE 200
0000008,
,
#GOGOEND
,
,
#END
