TITLE:GO ON YA WAY (feat. Chougakusei)
TITLEJA:GO ON YA WAY(feat. 超学生)
SUBTITLE:--FAKE TYPE. / GOONYA MONSTER
SUBTITLEJA:「グーニャモンスター」より
BPM:150
WAVE:GO ON YA WAY.ogg
OFFSET:-2.251
DEMOSTART:59.841 //SONG_ID:goonya //shinuchi:
10810/5640/3400/2110

COURSE:Oni
LEVEL:8
BALLOON:2,2,2,2,2,9
SCOREINIT:720,2240
SCOREDIFF:195
#START
1020102010221020,
1020102010211020,
1020102010112020,
1020102020221120,
1020102010221020,
1020102010211020,
1212110
#SCROLL 1.5
3,
033430
#SCROLL 1
40, //8
1121200012112000,
2011201210120040,
1120101120120020,
200200100100200000200100000000
#SCROLL 1.25
700000008000000000,
#SCROLL 1
1020102010210220,
1020102010210220,
1020102010210220,
1011202011221020, //16
1020102010210220,
1020102010210220,
1020102010210220,
1020111120112120,
1022102011221020,
100000200100000200100000100000
#SCROLL 1.25
700000008000000000,
#SCROLL 1
1122102010221120,
100000100200000100200000100000
#SCROLL 1.25
700000008000000000, //24
#SCROLL 1
1010211120120020,
1011221120120040,
0011221120120022,
100100100100200000100200000000
#SCROLL 1.25
700000008000000000,
#SCROLL 0.75
1000001020222010,
1001001000221020,
1000001020222010,
1001001000221020,
1000001020222010,
1001001000221020,
1010201020222020,
#SCROLL 1.5
3330, //36
#SCROLL 1
#GOGOSTART
1020102010221020,
1020102011221020,
1020101122221120,
100000100100200000100100200200200000
#SCROLL 1.25
700000008000,
#SCROLL 1
1020102010221020,
1020102011221020,
1020112010201111,
1011102010211020, //44
#GOGOEND
#SCROLL 0.75
100202101200,
202101222111,
100201104000,
100101222111,
100202101200,
202101222111,
101101104000,
100010001000
#SCROLL 1
200020002000
#SCROLL 1.5
700000000000000000000008,
#SCROLL 1
0,
0,
0, //55
#END

COURSE:Hard
LEVEL:6
BALLOON:10,8,10,10,10
SCOREINIT:910,3650
SCOREDIFF:268
#START
1000200010111000,
1000200010222000,
1000200010111000,
1000200010111000,
1000200010111000,
1000200010222000,
1020110
#SCROLL 1.25
3,
033330
#SCROLL 1
00, //8
11201120,
1010201010110000,
1010201010110000,
70000800,
1000200010022020,
1000200010022020,
1000200010022020,
10112210, //16
1000200010022020,
1000200010022020,
1000200010022020,
10112220,
1011100010111000,
1001001010004000,
1022200010222000,
1001001010004000, //24
1000100010110000,
1000100020220000,
1000200010220000,
700000000000000000000000000000000008000000000000,
#SCROLL 0.75
10012002,
1001001000222000,
10012002,
1001001000202000,
10012002,
1001001000222000,
10012220,
#SCROLL 1.25
3330, //36
#SCROLL 1
#GOGOSTART
1000200010111010,
11221212,
1000102011102020,
70000800,
1000200010111010,
11221212,
1000102011101110,
70000800, //44
#GOGOEND
#SCROLL 0.75
100001100200,
100200111100,
100101100200,
100101100200,
100001100200,
100200111100,
100101100200,
9
#SCROLL 1
009,
8,
0,
0, //55
#END

COURSE:Normal
LEVEL:5
BALLOON:7,6,7,7,7
SCOREINIT:1140,5930
SCOREDIFF:400
#START
1110,
1120,
1210,
1120,
1110,
1120,
1020100
#SCROLL 1.25
6,
000000000000000000000008000000000000
#SCROLL 1
000000000000, //8
1212,
1110,
1210,
70000800,
1212,
1212,
1212,
10101110, //16
1212,
1212,
1212,
10102220,
10101110,
1001001010000000,
1212,
1001001010000000, //24
1000000010010000,
1000000020020000,
1000000010010000,
700000000000000000000000000000000008000000000000,
#SCROLL 0.75
12,
1001001000202000,
12,
1001001000202000,
12,
1001001000202000,
10012020,
#SCROLL 1.25
3330, //36
#SCROLL 1
#GOGOSTART
1212,
10111010,
1212,
70000800,
1212,
10111010,
1212,
70000800, //44
#GOGOEND
#SCROLL 0.75
1012,
1212,
1110,
1110,
1012,
1212,
1110,
9
#SCROLL 1
009,
8,
0,
0, //55
#END

COURSE:Easy
LEVEL:2
BALLOON:5,5,3,6
SCOREINIT:1150,11470
SCOREDIFF:783
#START
11,
1,
11,
1,
11,
1,
1000100
#SCROLL 1.25
6,
000000000000000000000008000000000000
#SCROLL 1
000000000000, //8
11,
1110,
1110,
2,
1,
1,
1,
11, //16
1,
1,
1,
11,
1110,
12,
1110,
12, //24
1110,
1110,
12,
700000000000000000000000000000000008000000000000,
#SCROLL 0.75
11,
1,
22,
2,
11,
1,
11,
#SCROLL 1.25
3330, //36
#SCROLL 1
#GOGOSTART
11,
1110,
11,
70000800,
11,
1110,
11,
700000000000000000000000080000000000000000000000, //44
#GOGOEND
#SCROLL 0.75
12,
12,
1,
2,
12,
12,
1,
9
#SCROLL 1
009,
8,
0,
0, //55
#END
