//TJADB Project
TITLE:Crystal Hail
TITLEJA:Crystal Hail
SUBTITLE:--Nhato/Synchronica
SUBTITLEJA:Nhato 「シンクロニカ」より
BPM:150
WAVE:Crystal Hail.ogg
OFFSET:-1.184
DEMOSTART:103.586

COURSE:Oni
LEVEL:9
BALLOON:5,5,7,5,5,3,3,40
SCOREINIT:1210
SCOREDIFF:0
#START
20020010,
0000122220002000,
20020010,
20020010, //4
10020020,
0000111220002000,
10020010,
10020010, //8
200100100200200100200222,
2010122220102202,
100000200200000200100000200000200200100200202020,
1022021020221111, //12
200000100100000100200000100000100100200100101010,
2000111220102220,
4022202220202222,
#SCROLL 2
500000000000000008000000
#SCROLL 1
200000100200100200200200, //16
1012011010120122,
1012012022221122,
1012011010120122,
1012017000801222, //20
1101201122102202,
1101201110112220,
100100200200100100200200100100202020100000200000,
200100100100200100100100200100100100100000202020, //24
1011011120110111,
2011011120110222,
1011011220110112,
2011012220110122, //28
2011022220110222,
2012022220120222,
2122121121121122,
#SCROLL 1.5
30230708, //32
#MEASURE 3/4
#SCROLL 0.75
22, //33
#MEASURE 1/32
5,
#SCROLL 0.78
0,
#SCROLL 0.82
0,
#SCROLL 0.85
0,
#SCROLL 0.89
0,
#SCROLL 0.93
0,
#SCROLL 0.97
0,
#SCROLL 1.01
0,
#SCROLL 1.05
0,
#SCROLL 1.10
0,
#SCROLL 1.15
0,
#SCROLL 1.20
0,
#SCROLL 1.25
0,
#SCROLL 1.31
0,
#SCROLL 1.36
0,
#SCROLL 1.42
0,
#SCROLL 1.48
0,
#SCROLL 1.55
0,
#SCROLL 1.62
0,
#SCROLL 1.69
0,
#SCROLL 1.76
8,
#SCROLL 1.84
0,
#SCROLL 1.92
0,
#SCROLL 2.00
0, //57
#BARLINEOFF
#MEASURE 2/4
#SCROLL 0.75
2021, //58
#BARLINEON
#MEASURE 4/4
#SCROLL 1
400200200400200200400222,
22242130, //60
700000000000000008000000400000200000200000300000,
23304140,
300300111200300111200000,
400000100100100100100100
#SCROLL 1.25
200020002000
#SCROLL 1.33
400040004000, //64
100000100000200020002000100000100100200200200200,
100000000000100100100100500000008000200200100100,
7000802022100010,
200000100000500000008000200000100000200200100100, //68
22302303,
03708122,
3222223222226000,
000000000000000008000000
#SCROLL 1
400000100000100000100000, //72
1012011120120111,
2011011120110111,
2011011120110111,
2012011120120222, //76
2011011120110111,
2011011120110111,
200200200200100100200200100100202020100000200000,
100000200200100000100000200200100000100000202020, //80
1
#SCROLL 0.75
111,
1111,
10121010,
10121020, //84
#SCROLL 1
11111111,
11111111,
#SCROLL 1.25
1111111111111111,
#SCROLL 1.5
500000000000000000008000
#SCROLL 1
000200000100200200100100, //88
#GOGOSTART
1011012012021020,
1011012012012020,
1011012012021020,
1011012012012211, //92
1012102012101020,
1012102012102122,
1011012012021020,
1011012012212222, //96
1011212012021020,
1011212012012122,
1011212012021020,
1011212012012222, //100
#SCROLL 1.5
1011708011227080,
100100200200100100200200101010101010200200200200,
#GOGOEND
#SCROLL 1
21121121,
200100100100200100100100200100101010100200200200, //104
100000100200100000100222,
1000122210201000,
100000100200100000100222,
10121020, //108
#SCROLL 0.75
10121010,
1000111210001000,
10121010,
100000100200100000100111, //112
#SCROLL 0.5
7,
0,
8,
0, //116
#END

COURSE:Hard
LEVEL:7
BALLOON:5,3,10,32
SCOREINIT:1860
SCOREDIFF:0
#START
20020010,
0000222020002000,
20020010,
20020010, //4
10020020,
0000111020002000,
10020010,
10020010, //8
21122020,
2010222020002000,
10212012,
10212010, //12
20121021,
2000111020002000,
4000200020202220,
#SCROLL 2
500000000000000000000008
#SCROLL 1
000000000000000000000000, //16
1011001010110020,
1011001011101000,
1012001010120010,
1012007000800000, //20
1000201000102220,
1000201110102000,
1110111010111020,
1110111011103000, //24
1011001010110010,
1011001010110010,
2011001020110010,
2011001020110020, //28
2011002020110020,
2011002020110020,
2022202220111110,
#SCROLL 1.5
30030708, //32
#MEASURE 3/4
#SCROLL 0.75
22, //33
#MEASURE 1/32
5,
#SCROLL 0.78
0,
#SCROLL 0.82
0,
#SCROLL 0.85
0,
#SCROLL 0.89
0,
#SCROLL 0.93
0,
#SCROLL 0.97
0,
#SCROLL 1.01
0,
#SCROLL 1.05
0,
#SCROLL 1.10
0,
#SCROLL 1.15
0,
#SCROLL 1.20
0,
#SCROLL 1.25
0,
#SCROLL 1.31
0,
#SCROLL 1.36
0,
#SCROLL 1.42
0,
#SCROLL 1.48
0,
#SCROLL 1.55
0,
#SCROLL 1.62
0,
#SCROLL 1.69
0,
#SCROLL 1.76
8,
#SCROLL 1.84
0,
#SCROLL 1.92
0,
#SCROLL 2.00
0, //57
#BARLINEOFF
#MEASURE 2/4
#SCROLL 0.75
0, //58
#BARLINEON
#MEASURE 4/4
#SCROLL 1
20020010,
20020010, //60
10020020,
0000111020002000,
1000102010111000,
2111
#SCROLL 1.25
40
#SCROLL 1.33
00, //64
100000101010100000000100,
10011001,
10020020,
10020020, //68
10050000,
000000000000000000000008000000000000000000000000,
30030060,
000000000000000000000008
#SCROLL 1
000000000000000000000000, //72
1022001010220010,
1022001010220010,
2022001020220010,
2022001020220010, //76
1022001010220010,
1022001010220010,
2220222020222000,
1011101000202011, //80
1
#SCROLL 0.75
111,
1111,
10121010,
10121020, //84
#SCROLL 1
11111111,
11111111,
#SCROLL 1.25
1110111011111110,
#SCROLL 1.5
500000000000000000008000
#SCROLL 1
000000000000000000000000, //88
#GOGOSTART
1011022011001020,
1011022011002020,
1011022011001020,
1011022011002020, //92
1011100010201020,
1011100010102020,
1011022011001020,
1011022011002020, //96
2011022011022020,
2011022011022020,
2011022011022020,
2011022011022000, //100
#SCROLL 1.5
1011100011101000,
70000008,
#GOGOEND
#SCROLL 1
21121121,
1110111011104000, //104
10121010,
1000222010001000,
10121010,
10121020,//108
#SCROLL 0.75
10121010,
1000111010001000,
10121010,
10121010, //112
#SCROLL 0.5
7,
0,
8,
0, //116
#END

COURSE:Normal
LEVEL:6
BALLOON:7,25
SCOREINIT:2950
SCOREDIFF:0
#START
20020010,
0022,
20020010,
20020010, //4
10020020,
0022,
10020010,
10020010, //8
10022010,
0122,
10012010,
10012010, //12
20021020,
0122,
40202222,
#SCROLL 2
500000000000000000000008
#SCROLL 1
000000000000000000000000, //16
1001000010010000,
1001001000000000,
1001000010010000,
2002002000000000, //20
10010020,
10201120,
10101110,
11111030, //24
1001000010010000,
1001000010010000,
2001000020010000,
2001000020010000, //28
2002000020020000,
2002000020020000,
2002002020202000,
#SCROLL 1.5
3, //32
#MEASURE 3/4
#SCROLL 0.75
22, //33
#MEASURE 1/32
5,
#SCROLL 0.78
0,
#SCROLL 0.82
0,
#SCROLL 0.85
0,
#SCROLL 0.89
0,
#SCROLL 0.93
0,
#SCROLL 0.97
0,
#SCROLL 1.01
0,
#SCROLL 1.05
0,
#SCROLL 1.10
0,
#SCROLL 1.15
0,
#SCROLL 1.20
0,
#SCROLL 1.25
0,
#SCROLL 1.31
0,
#SCROLL 1.36
0,
#SCROLL 1.42
0,
#SCROLL 1.48
0,
#SCROLL 1.55
0,
#SCROLL 1.62
0,
#SCROLL 1.69
0,
#SCROLL 1.76
8,
#SCROLL 1.84
0,
#SCROLL 1.92
0,
#SCROLL 2.00
0, //57
#BARLINEOFF
#MEASURE 2/4
#SCROLL 0.75
0, //58
#BARLINEON
#MEASURE 4/4
#SCROLL 1
20020010,
20020010, //60
10020020,
0122,
10010010,
2110
#SCROLL 1.25
30
#SCROLL 1.33
00, //64
11,
11,
10020020,
10020020, //68
10050000,
000000000000000000000008000000000000000000000000,
30030060,
000000000000000000000008
#SCROLL 1
000000000000000000000000, //72
1001000010010000,
1001000010010000,
2001000020010000,
2001000020010000, //76
1002001010020010,
1002001010020010,
10101110,
11111011, //80
1
#SCROLL 0.75
111,
1111,
10121010,
10121020, //84
#SCROLL 1
11101110,
11101110,
#SCROLL 1.25
11111111,
#SCROLL 1.5
500000000000000000008000
#SCROLL 1
000000000000000000000000, //88
#GOGOSTART
1001002001001000,
1001002001001000,
1001002001001000,
1001002001001000, //92
10101210,
10101210,
1001002001001000,
1001002001001000, //96
2001002001002000,
2001002001002000,
2001002001002000,
2001002001002000, //100
#SCROLL 1.5
10101110,
70000008,
#GOGOEND
#SCROLL 1
20020020,
10101140, //104
10121010,
1111,
10121010,
10121020, //108
#SCROLL 0.75
10121010,
1111,
10121010,
10121010, //112
#SCROLL 0.5
7,
0,
8,
0, //116
#END

COURSE:Easy
LEVEL:4
BALLOON:5,20
SCOREINIT:4730
SCOREDIFF:0
#START
20020020,
0,
20020000,
20020000, //4
20020020,
0,
20020000,
20020000, //8
10020020,
0022,
20020000,
20020000, //12
10020020,
0022,
4022,
#SCROLL 2
500000000000000000000008
#SCROLL 1
000000000000000000000000, //16
11,
1,
11,
2, //20
10010020,
1212,
10010020,
1113, //24
11,
11,
22,
22, //28
12,
12,
1122,
#SCROLL 1.5
3, //32
#MEASURE 3/4
#SCROLL 0.75
22, //33
#MEASURE 1/32
5,
#SCROLL 0.78
0,
#SCROLL 0.82
0,
#SCROLL 0.85
0,
#SCROLL 0.89
0,
#SCROLL 0.93
0,
#SCROLL 0.97
0,
#SCROLL 1.01
0,
#SCROLL 1.05
0,
#SCROLL 1.10
0,
#SCROLL 1.15
0,
#SCROLL 1.20
0,
#SCROLL 1.25
0,
#SCROLL 1.31
0,
#SCROLL 1.36
0,
#SCROLL 1.42
0,
#SCROLL 1.48
0,
#SCROLL 1.55
0,
#SCROLL 1.62
0,
#SCROLL 1.69
0,
#SCROLL 1.76
8,
#SCROLL 1.84
0,
#SCROLL 1.92
0,
#SCROLL 2.00
0, //57
#BARLINEOFF
#MEASURE 2/4
#SCROLL 0.75
0, //58
#BARLINEON
#MEASURE 4/4
#SCROLL 1
20020000,
20020000, //60
10020020,
0120,
10010010,
11
#SCROLL 1.25
3
#SCROLL 1.33
0, //64
11,
11,
10010000,
10010000, //68
10050000,
000000000000000000000008000000000000000000000000,
30030060,
000000000000000000000008
#SCROLL 1
000000000000000000000000, //72
11,
11,
22,
22, //76
12,
12,
1110,
1111, //80
1
#SCROLL 0.75
000,
1,
10010010,
10010020, //84
#SCROLL 1
1111,
1111,
#SCROLL 1.25
5,
000000000000000000008000
#SCROLL 1
000000000000000000000000, //88
#GOGOSTART
1001001000001000,
1001001000001000,
1001001000001000,
1001001000001000, //92
1122,
1122,
1001001000001000,
1001001000000000, //96
1001001000002000,
1001001000002000,
1001001000002000,
1001001000002000, //100
#SCROLL 1.5
1111,
70000008,
#GOGOEND
#SCROLL 1
20020020,
20020040, //104
10010010,
0011,
10010010,
10010010, //108
#SCROLL 0.75
10010010,
0011,
10010010,
10010010, //112
#SCROLL 0.5
7,
0,
8,
0, //116
#END
