//TJADB Project
TITLE:Nagoya-bayashi
TITLEJA:名古屋ばやし
SUBTITLE:--
SUBTITLEJA:
BPM:109.028
WAVE:Nagoya-bayashi.ogg
OFFSET:-1.836
DEMOSTART:14.705

COURSE:Oni
LEVEL:7
BALLOON:19,19,19,19
SCOREINIT:1760
SCOREDIFF:0
#START
#SCROLL 1.03
100000200020100022200020,
#BPMCHANGE 111.853
#SCROLL 1.01
100000200020100022200020,
#BPMCHANGE 111.933
#SCROLL 1
100000200020100022200020,
#BPMCHANGE 112.966
102102100202,
#BPMCHANGE 113.094
#SCROLL 0.99
100202101202,
#BPMCHANGE 110.850
#SCROLL 1.01
102102100202, //6
#BPMCHANGE 112.195
#SCROLL 1
100202102202,
#BPMCHANGE 110.594
#SCROLL 1.02
100100100202,
#BPMCHANGE 111.178
#SCROLL 1.01
100000200020100022200020,
100100100202, //10
#BPMCHANGE 112.018
#SCROLL 1
100202102202,
#BPMCHANGE 110.533
#SCROLL 1.02
100100100202,
#BPMCHANGE 112.270
#SCROLL 1
500000000000000000000000000000000008000000000000,
#BPMCHANGE 111.581
#SCROLL 1.01
300300300202, //14
#BPMCHANGE 112.522
#SCROLL 1
100202102202,
#BPMCHANGE 111.767
#SCROLL 1.01
100100100202,
#BPMCHANGE 116.246
#SCROLL 0.97
700000000000000000000000000000000000000000080000,
#BPMCHANGE 108.529
#SCROLL 1.04
3332, //18
#BPMCHANGE 115.872
#SCROLL 0.97
#GOGOSTART
300000300000300022200010,
#BPMCHANGE 115.176
#SCROLL 0.98
100000100010100022200020,
#BPMCHANGE 114.321
300000300000400022200010,
100000100010100022200020, //22
#GOGOEND
#BPMCHANGE 113.478
#SCROLL 0.99
100202100202,
#BPMCHANGE 112.585
#SCROLL 1
102102100202, //24
#BPMCHANGE 110.901
#SCROLL 1.01
100202102202,
100100100202,
#BPMCHANGE 111.444
100000200020100022200020,
100100100202, //28
#BPMCHANGE 112.610
#SCROLL 1
100202102202,
#BPMCHANGE 111.581
#SCROLL 1.01
100100100202,
#BPMCHANGE 113.030
#SCROLL 0.99
500000000000000000000000000000000008000000000000,
#BPMCHANGE 111.643
#SCROLL 1.01
300300300202, //32
#BPMCHANGE 113.173
#SCROLL 0.99
100202102202,
100100100202,
#BPMCHANGE 115.677
#SCROLL 0.97
70000008,
#BPMCHANGE 110.775
#SCROLL 1.02
3332, //36
#BPMCHANGE 114.946
#SCROLL 0.98
#GOGOSTART
300000300000300022200010,
100000100010100022200020,
#BPMCHANGE 114.583
300000300000400022200010,
100000100010100022200020, //40
#GOGOEND
#BPMCHANGE 113.222
#SCROLL 0.99
100022200020100010200020,
202102101202,
#BPMCHANGE 115.976
#SCROLL 0.97
101202100202,
#BPMCHANGE 114.648
#SCROLL 0.98
200022100020100000200020, //44
#BPMCHANGE 113.640
#SCROLL 0.99
100202101202,
200022100020100000200020,
#BPMCHANGE 114.944
#SCROLL 0.98
101202100202,
100022100020100000200020, //48
#BPMCHANGE 114.517
100102101202,
#BPMCHANGE 113.866
#SCROLL 0.99
102102100202,
#BPMCHANGE 114.517
#SCROLL 0.98
100022200020100010200020,
#BPMCHANGE 112.712
#SCROLL 1
102102100202, //52
#BPMCHANGE 112.061
100202102202,
#BPMCHANGE 110.736
#SCROLL 1.02
100100100202,
#BPMCHANGE 112.754
#SCROLL 1
100000200020100022200020,
100100100202, //56
100202102202,
#BPMCHANGE 113.260
#SCROLL 0.99
100100100202,
500000000000000000000000000000000008000000000000,
#BPMCHANGE 111.384
#SCROLL 1.01
300300300202, //60
#BPMCHANGE 112.531
#SCROLL 1
100202102202,
100100100202,
#BPMCHANGE 114.629
#SCROLL 0.98
70000008,
#BPMCHANGE 110.773
#SCROLL 1.02
3332, //64
#BPMCHANGE 117.273
#SCROLL 0.96
#GOGOSTART
300000300000300022200010,
#BPMCHANGE 113.607
#SCROLL 0.99
100000100010100022200020,
#BPMCHANGE 115.443
#SCROLL 0.97
300000300000400022200010,
#BPMCHANGE 113.312
#SCROLL 0.99
100000100010100022200020, //68
#GOGOEND
#BPMCHANGE 112.244
#SCROLL 1
100000200020100022200020,
#BPMCHANGE 113.671
#SCROLL 0.99
100000200020100022200020,
100000200020100022200020,
#BPMCHANGE 114.912
#SCROLL 0.98
102102100202,
#BPMCHANGE 115.308
#SCROLL 0.97
100202101202,
#BPMCHANGE 111.333
#SCROLL 1.01
102102100202, //74
#BPMCHANGE 112.206
#SCROLL 1
100202102202,
100100100202,
#BPMCHANGE 112.018
100000200020100022200020,
100100100202, //78
#BPMCHANGE 113.607
#SCROLL 0.99
100202102202,
#BPMCHANGE 111.580
#SCROLL 1.01
100100100202,
#BPMCHANGE 112.081
#SCROLL 1
500000000000000000000000000000000008000000000000,
#BPMCHANGE 113.351
#SCROLL 0.99
300300300202, //82
#BPMCHANGE 111.955
#SCROLL 1
100202102202,
#BPMCHANGE 114.678
#SCROLL 0.98
100100100202,
#BPMCHANGE 113.300
#SCROLL 0.99
70000008,
#BPMCHANGE 112.732
#SCROLL 1
3332, //86
#BPMCHANGE 114.432
#SCROLL 0.98
#GOGOSTART
300000300000300022200010,
#BPMCHANGE 115.263
100000100010100022200020,
#BPMCHANGE 115.309
#SCROLL 0.97
300000300000400022200010,
#BPMCHANGE 114.648
#SCROLL 0.98
100000100010100022200020, //90
#GOGOEND
#BPMCHANGE 115.441
#SCROLL 0.97
100202100202,
#BPMCHANGE 111.085
#SCROLL 1.01
102102300000,
0,
0, //94
#END

COURSE:Hard
LEVEL:4
BALLOON:12,12,12,12
SCOREINIT:2580
SCOREDIFF:0
#START
#SCROLL 1.03
100101100202,
#BPMCHANGE 111.853
#SCROLL 1.01
100101100202,
#BPMCHANGE 111.933
#SCROLL 1
100101100202,
#BPMCHANGE 112.966
100102100202,
#BPMCHANGE 113.094
#SCROLL 0.99
100202102202,
#BPMCHANGE 110.850
#SCROLL 1.01
1110, //6
#BPMCHANGE 112.195
#SCROLL 1
100200100202,
#BPMCHANGE 110.594
#SCROLL 1.02
1110,
#BPMCHANGE 111.178
#SCROLL 1.01
100200100202,
1110, //10
#BPMCHANGE 112.018
#SCROLL 1
100200100202,
#BPMCHANGE 110.533
#SCROLL 1.02
1110,
#BPMCHANGE 112.270
#SCROLL 1
500000000000000000000000000000000008000000000000,
#BPMCHANGE 111.581
#SCROLL 1.01
3330, //14
#BPMCHANGE 112.522
#SCROLL 1
100200100202,
#BPMCHANGE 111.767
#SCROLL 1.01
1110,
#BPMCHANGE 116.246
#SCROLL 0.97
7008,
#BPMCHANGE 108.529
#SCROLL 1.04
3332, //18
#BPMCHANGE 115.872
#SCROLL 0.97
#GOGOSTART
300300300201,
#BPMCHANGE 115.176
#SCROLL 0.98
100101100200,
#BPMCHANGE 114.321
300300400201,
100101100200, //22
#GOGOEND
#BPMCHANGE 113.478
#SCROLL 0.99
100202100202,
#BPMCHANGE 112.585
#SCROLL 1
1110, //24
#BPMCHANGE 110.901
#SCROLL 1.01
100200100202,
1110,
#BPMCHANGE 111.444
100200100202,
1110, //28
#BPMCHANGE 112.610
#SCROLL 1
100200100202,
#BPMCHANGE 111.581
#SCROLL 1.01
1110,
#BPMCHANGE 113.030
#SCROLL 0.99
500000000000000000000000000000000008000000000000,
#BPMCHANGE 111.643
#SCROLL 1.01
3330, //32
#BPMCHANGE 113.173
#SCROLL 0.99
100200100202,
1110,
#BPMCHANGE 115.677
#SCROLL 0.97
7008,
#BPMCHANGE 110.775
#SCROLL 1.02
3332, //36
#BPMCHANGE 114.946
#SCROLL 0.98
#GOGOSTART
300300300201,
100101100200,
#BPMCHANGE 114.583
300300400201,
100101100200, //40
#GOGOEND
#BPMCHANGE 113.222
#SCROLL 0.99
100202100202,
200100100202,
#BPMCHANGE 115.976
#SCROLL 0.97
100202100202,
#BPMCHANGE 114.648
#SCROLL 0.98
200100100202, //44
#BPMCHANGE 113.640
#SCROLL 0.99
100202100202,
200100100202,
#BPMCHANGE 114.944
#SCROLL 0.98
100202100202,
1110, //48
#BPMCHANGE 114.517
100100100202,
#BPMCHANGE 113.866
#SCROLL 0.99
100100100202,
#BPMCHANGE 114.517
#SCROLL 0.98
100202100202,
#BPMCHANGE 112.712
#SCROLL 1
1110, //52
#BPMCHANGE 112.061
100200100202,
#BPMCHANGE 110.736
#SCROLL 1.02
1110,
#BPMCHANGE 112.754
#SCROLL 1
100200100202,
1110, //56
100200100202,
#BPMCHANGE 113.260
#SCROLL 0.99
1110,
500000000000000000000000000000000008000000000000,
#BPMCHANGE 111.384
#SCROLL 1.01
3330, //60
#BPMCHANGE 112.531
#SCROLL 1
100200100202,
1110,
#BPMCHANGE 114.629
#SCROLL 0.98
7008,
#BPMCHANGE 110.773
#SCROLL 1.02
3332, //64
#BPMCHANGE 117.273
#SCROLL 0.96
#GOGOSTART
300300300201,
#BPMCHANGE 113.607
#SCROLL 0.99
100101100200,
#BPMCHANGE 115.443
#SCROLL 0.97
300300400201,
#BPMCHANGE 113.312
#SCROLL 0.99
100101100200, //68
#GOGOEND
#BPMCHANGE 112.244
#SCROLL 1
100101100202,
#BPMCHANGE 113.671
#SCROLL 0.99
100101100202,
100101100202,
#BPMCHANGE 114.912
#SCROLL 0.98
100102100202,
#BPMCHANGE 115.308
#SCROLL 0.97
100202102202,
#BPMCHANGE 111.333
#SCROLL 1.01
1110, //74
#BPMCHANGE 112.206
#SCROLL 1
100200100202,
1110,
#BPMCHANGE 112.018
100200100202,
1110, //78
#BPMCHANGE 113.607
#SCROLL 0.99
100200100202,
#BPMCHANGE 111.580
#SCROLL 1.01
1110,
#BPMCHANGE 112.081
#SCROLL 1
500000000000000000000000000000000008000000000000,
#BPMCHANGE 113.351
#SCROLL 0.99
3330, //82
#BPMCHANGE 111.955
#SCROLL 1
100200100202,
#BPMCHANGE 114.678
#SCROLL 0.98
1110,
#BPMCHANGE 113.300
#SCROLL 0.99
7008,
#BPMCHANGE 112.732
#SCROLL 1
3332, //86
#BPMCHANGE 114.432
#SCROLL 0.98
#GOGOSTART
300300300201,
#BPMCHANGE 115.263
100101100200,
#BPMCHANGE 115.309
#SCROLL 0.97
300300400201,
#BPMCHANGE 114.648
#SCROLL 0.98
100101100200, //90
#GOGOEND
#BPMCHANGE 115.441
#SCROLL 0.97
100202100202,
#BPMCHANGE 111.085
#SCROLL 1.01
1130,
0,
0, //94
#END

COURSE:Normal
LEVEL:2
BALLOON:8,8,8,8
SCOREINIT:4040
SCOREDIFF:0
#START
#SCROLL 1.03
1120,
#BPMCHANGE 111.853
#SCROLL 1.01
1120,
#BPMCHANGE 111.933
#SCROLL 1
1120,
#BPMCHANGE 112.966
1110,
#BPMCHANGE 113.094
#SCROLL 0.99
11,
#BPMCHANGE 110.850
#SCROLL 1.01
1110, //6
#BPMCHANGE 112.195
#SCROLL 1
11,
#BPMCHANGE 110.594
#SCROLL 1.02
1110,
#BPMCHANGE 111.178
#SCROLL 1.01
11,
1110, //10
#BPMCHANGE 112.018
#SCROLL 1
11,
#BPMCHANGE 110.533
#SCROLL 1.02
1110,
#BPMCHANGE 112.270
#SCROLL 1
500000000000000000000000000000000008000000000000,
#BPMCHANGE 111.581
#SCROLL 1.01
3330, //14
#BPMCHANGE 112.522
#SCROLL 1
11,
#BPMCHANGE 111.767
#SCROLL 1.01
1110,
#BPMCHANGE 116.246
#SCROLL 0.97
7008,
#BPMCHANGE 108.529
#SCROLL 1.04
3330, //18
#BPMCHANGE 115.872
#SCROLL 0.97
#GOGOSTART
3330,
#BPMCHANGE 115.176
#SCROLL 0.98
100101100000,
#BPMCHANGE 114.321
3340,
100101100000, //22
#GOGOEND
#BPMCHANGE 113.478
#SCROLL 0.99
11,
#BPMCHANGE 112.585
#SCROLL 1
1110, //24
#BPMCHANGE 110.901
#SCROLL 1.01
11,
1110,
#BPMCHANGE 111.444
11,
1110, //28
#BPMCHANGE 112.610
#SCROLL 1
11,
#BPMCHANGE 111.581
#SCROLL 1.01
1110,
#BPMCHANGE 113.030
#SCROLL 0.99
500000000000000000000000000000000008000000000000,
#BPMCHANGE 111.643
#SCROLL 1.01
3330, //32
#BPMCHANGE 113.173
#SCROLL 0.99
11,
1110,
#BPMCHANGE 115.677
#SCROLL 0.97
7008,
#BPMCHANGE 110.775
#SCROLL 1.02
3330, //36
#BPMCHANGE 114.946
#SCROLL 0.98
#GOGOSTART
3330,
100101100000,
#BPMCHANGE 114.583
3340,
100101100000, //40
#GOGOEND
#BPMCHANGE 113.222
#SCROLL 0.99
1212,
2110,
#BPMCHANGE 115.976
#SCROLL 0.97
1212,
#BPMCHANGE 114.648
#SCROLL 0.98
2110, //44
#BPMCHANGE 113.640
#SCROLL 0.99
1212,
2110,
#BPMCHANGE 114.944
#SCROLL 0.98
1212,
2110, //48
#BPMCHANGE 114.517
1110,
#BPMCHANGE 113.866
#SCROLL 0.99
1110,
#BPMCHANGE 114.517
#SCROLL 0.98
1212,
#BPMCHANGE 112.712
#SCROLL 1
2110, //52
#BPMCHANGE 112.061
11,
#BPMCHANGE 110.736
#SCROLL 1.02
1110,
#BPMCHANGE 112.754
#SCROLL 1
12,
1110, //56
11,
#BPMCHANGE 113.260
#SCROLL 0.99
1110,
500000000000000000000000000000000008000000000000,
#BPMCHANGE 111.384
#SCROLL 1.01
3330, //60
#BPMCHANGE 112.531
#SCROLL 1
11,
1110,
#BPMCHANGE 114.629
#SCROLL 0.98
7008,
#BPMCHANGE 110.773
#SCROLL 1.02
3330, //64
#BPMCHANGE 117.273
#SCROLL 0.96
#GOGOSTART
3330,
#BPMCHANGE 113.607
#SCROLL 0.99
100101100000,
#BPMCHANGE 115.443
#SCROLL 0.97
3340,
#BPMCHANGE 113.312
#SCROLL 0.99
100101100000, //68
#GOGOEND
#BPMCHANGE 112.244
#SCROLL 1
1120,
#BPMCHANGE 113.671
#SCROLL 0.99
1120,
1120,
#BPMCHANGE 114.912
#SCROLL 0.98
1110,
#BPMCHANGE 115.308
#SCROLL 0.97
11,
#BPMCHANGE 111.333
#SCROLL 1.01
1110, //74
#BPMCHANGE 112.206
#SCROLL 1
11,
1110,
#BPMCHANGE 112.018
11,
1110, //78
#BPMCHANGE 113.607
#SCROLL 0.99
11,
#BPMCHANGE 111.580
#SCROLL 1.01
1110,
#BPMCHANGE 112.081
#SCROLL 1
500000000000000000000000000000000008000000000000,
#BPMCHANGE 113.351
#SCROLL 0.99
3330, //82
#BPMCHANGE 111.955
#SCROLL 1
11,
#BPMCHANGE 114.678
#SCROLL 0.98
1110,
#BPMCHANGE 113.300
#SCROLL 0.99
7008,
#BPMCHANGE 112.732
#SCROLL 1
3330, //86
#BPMCHANGE 114.432
#SCROLL 0.98
#GOGOSTART
3330,
#BPMCHANGE 115.263
100101100000,
#BPMCHANGE 115.309
#SCROLL 0.97
3340,
#BPMCHANGE 114.648
#SCROLL 0.98
100101100000, //90
#GOGOEND
#BPMCHANGE 115.441
#SCROLL 0.97
1110,
#BPMCHANGE 111.085
#SCROLL 1.01
1130,
0,
0, //94
#END

COURSE:Easy
LEVEL:2
BALLOON:5,5,5,5
SCOREINIT:6220
SCOREDIFF:0
#START
#SCROLL 1.03
12,
#BPMCHANGE 111.853
#SCROLL 1.01
12,
#BPMCHANGE 111.933
#SCROLL 1
12,
#BPMCHANGE 112.966
1,
#BPMCHANGE 113.094
#SCROLL 0.99
11,
#BPMCHANGE 110.850
#SCROLL 1.01
1, //6
#BPMCHANGE 112.195
#SCROLL 1
1,
#BPMCHANGE 110.594
#SCROLL 1.02
11,
#BPMCHANGE 111.178
#SCROLL 1.01
1,
11, //10
#BPMCHANGE 112.018
#SCROLL 1
1,
#BPMCHANGE 110.533
#SCROLL 1.02
11,
#BPMCHANGE 112.270
#SCROLL 1
500000000000000000000000000008000000000000000000,
#BPMCHANGE 111.581
#SCROLL 1.01
33, //14
#BPMCHANGE 112.522
#SCROLL 1
1,
#BPMCHANGE 111.767
#SCROLL 1.01
11,
#BPMCHANGE 116.246
#SCROLL 0.97
700000000000000000000000000000080000000000000000,
#BPMCHANGE 108.529
#SCROLL 1.04
3330, //18
#BPMCHANGE 115.872
#SCROLL 0.97
#GOGOSTART
33,
#BPMCHANGE 115.176
#SCROLL 0.98
1110,
#BPMCHANGE 114.321
34,
1110, //22
#GOGOEND
#BPMCHANGE 113.478
#SCROLL 0.99
11,
#BPMCHANGE 112.585
#SCROLL 1
1, //24
#BPMCHANGE 110.901
#SCROLL 1.01
1,
11,
#BPMCHANGE 111.444
1,
11, //28
#BPMCHANGE 112.610
#SCROLL 1
1,
#BPMCHANGE 111.581
#SCROLL 1.01
11,
#BPMCHANGE 113.030
#SCROLL 0.99
500000000000000000000000000008000000000000000000,
#BPMCHANGE 111.643
#SCROLL 1.01
33, //32
#BPMCHANGE 113.173
#SCROLL 0.99
1,
11,
#BPMCHANGE 115.677
#SCROLL 0.97
70000800,
#BPMCHANGE 110.775
#SCROLL 1.02
3330, //36
#BPMCHANGE 114.946
#SCROLL 0.98
#GOGOSTART
33,
1110,
#BPMCHANGE 114.583
34,
1110, //40
#GOGOEND
#BPMCHANGE 113.222
#SCROLL 0.99
11,
0110,
#BPMCHANGE 115.976
#SCROLL 0.97
11,
#BPMCHANGE 114.648
#SCROLL 0.98
0110, //44
#BPMCHANGE 113.640
#SCROLL 0.99
11,
0110,
#BPMCHANGE 114.944
#SCROLL 0.98
11,
0110, //48
#BPMCHANGE 114.517
12,
#BPMCHANGE 113.866
#SCROLL 0.99
0110,
#BPMCHANGE 114.517
#SCROLL 0.98
12,
#BPMCHANGE 112.712
#SCROLL 1
0110, //52
#BPMCHANGE 112.061
1,
#BPMCHANGE 110.736
#SCROLL 1.02
11,
#BPMCHANGE 112.754
#SCROLL 1
1,
11, //56
1,
#BPMCHANGE 113.260
#SCROLL 0.99
11,
500000000000000000000000000008000000000000000000,
#BPMCHANGE 111.384
#SCROLL 1.01
33, //60
#BPMCHANGE 112.531
#SCROLL 1
1,
11,
#BPMCHANGE 114.629
#SCROLL 0.98
70000800,
#BPMCHANGE 110.773
#SCROLL 1.02
3330, //64
#BPMCHANGE 117.273
#SCROLL 0.96
#GOGOSTART
33,
#BPMCHANGE 113.607
#SCROLL 0.99
1110,
#BPMCHANGE 115.443
#SCROLL 0.97
34,
#BPMCHANGE 113.312
#SCROLL 0.99
1110, //68
#GOGOEND
#BPMCHANGE 112.244
#SCROLL 1
12,
#BPMCHANGE 113.671
#SCROLL 0.99
12,
12,
#BPMCHANGE 114.912
#SCROLL 0.98
1,
#BPMCHANGE 115.308
#SCROLL 0.97
11,
#BPMCHANGE 111.333
#SCROLL 1.01
1, //74
#BPMCHANGE 112.206
#SCROLL 1
1,
11,
#BPMCHANGE 112.018
1,
11, //78
#BPMCHANGE 113.607
#SCROLL 0.99
1,
#BPMCHANGE 111.580
#SCROLL 1.01
11,
#BPMCHANGE 112.081
#SCROLL 1
500000000000000000000000000008000000000000000000,
#BPMCHANGE 113.351
#SCROLL 0.99
33, //82
#BPMCHANGE 111.955
#SCROLL 1
1,
#BPMCHANGE 114.678
#SCROLL 0.98
11,
#BPMCHANGE 113.300
#SCROLL 0.99
70000800,
#BPMCHANGE 112.732
#SCROLL 1
3330, //86
#BPMCHANGE 114.432
#SCROLL 0.98
#GOGOSTART
33,
#BPMCHANGE 115.263
1110,
#BPMCHANGE 115.309
#SCROLL 0.97
34,
#BPMCHANGE 114.648
#SCROLL 0.98
1110, //90
#GOGOEND
#BPMCHANGE 115.441
#SCROLL 0.97
11,
#BPMCHANGE 111.085
#SCROLL 1.01
1130,
0,
0, //94
#END
