//TJADB Project
TITLE:Idol -Cover Audio/Chart-
TITLEJA:アイドル
SUBTITLE:--【Oshi No Ko】
SUBTITLEJA:カバー音源・譜面 TVアニメ『【推しの子】』より
BPM:166
WAVE:Idol (Cover).ogg
OFFSET:-0.557
DEMOSTART:55.123 //Shinuchi:
9510/4860/3110/1930

COURSE:Oni
LEVEL:7
BALLOON:21
SCOREINIT:610,2080
SCOREDIFF:168
#START
30221121,
2020302020302220,
30221121,
2020302020302220,
32221121,
2020302020302220,
30201121,
2020302020302220, //8
30203223,
04033020,
7,
00000820,
1010222010002010,
1010222010002010,
1010202011102020,
1020112010002011, //16
1010222010002010,
1010222010002010,
1010202011102020,
1020112010002000,
1001201000102020,
1001201000112020,
1010200210102000,
1010201020111020, //24
1001201200102020,
1001201200112020,
1010200210102011,
1020102210002020,
10110121,
01111021,
10111021,
1011101011102010, //32
1000201000112010,
0010201010112010,
1000201010012010,
0010201110112010,
3020203030112030,
03433020, //38
#GOGOSTART
1021201110112010,
0020101110121020,
1021201110112011,
11214040,
1021201110112010,
0020101110121020,
1021201110112011,
1020102020112220, //46
1000201010112020,
1021201210102020,
1000201010211020,
1020102010112020,
1000201010112020,
1021201210102020,
1010202010221030,
03033000, //54
#GOGOEND
1000100011101110,
2000200022202220,
1000100011101110,
500000000000000000000000000000000000000008000000,
3000200011102210,
1000200011102220,
1000200011102210,
1111221000000000, //62
#END

COURSE:Hard
LEVEL:4
BALLOON:17
SCOREINIT:680,3480
SCOREDIFF:213
#START
32,
00302120,
32,
00302120,
32,
00302120,
32,
00302120, //8
30203023,
03033000,
7,
00000800,
10111020,
10211020,
11201120,
11212000, //16
10111020,
10211020,
11201120,
11212000,
1001001000202000,
1001001000202000,
11201120,
11212000, //24
1001001000102000,
1001001000102000,
11201120,
11212000,
10011021,
01011020,
10011020,
1112, //32
10201120,
10201120,
1000100010010010,
01101110,
30033033,
03333000, //38
#GOGOSTART
10201121,
02111021,
10101121,
01114040,
10201121,
02111021,
10101121,
01211020, //46
10011212,
10011212,
10101212,
11201121,
10011212,
10011212,
10101213,
03033000, //54
#GOGOEND
30101110,
10101110,
10101110,
500000000000000000000000000000000000000008000000,
30201120,
10201120,
10201120,
1001001000000000, //62
#END

COURSE:Normal
LEVEL:4
BALLOON:12,14
SCOREINIT:840,5600
SCOREDIFF:315
#START
3,
0322,
3,
0322,
3,
0322,
3,
0322, //8
30003003,
03033000,
7,
00000800,
11,
11,
1110,
10111000, //16
11,
22,
1110,
10111000,
1001001000002000,
1001001000002000,
11,
10111000, //24
1001001000001000,
1001001000001000,
11,
10111000,
1012,
0012,
1012,
1112, //32
1202,
1202,
7,
00000008,
3036,
000000000000000000000008000000000000000000000000, //38
#GOGOSTART
10101001,
01101000,
10101001,
01104040,
10101001,
01101000,
10101011,
01011000, //46
10011010,
10011010,
10101110,
1212,
10011010,
10011010,
10101003,
03033000, //54
#GOGOEND
3011,
1011,
10101110,
0,
3212,
1212,
10201110,
0, //62
#END

COURSE:Easy
LEVEL:3
BALLOON:10,10,7,6
SCOREINIT:1050,10930
SCOREDIFF:673
#START
3,
0,
3,
0,
4,
0,
4,
0, //8
6,
000000000000000000000008000000000000000000000000,
7,
00000800,
1,
1,
11,
1, //16
1,
2,
11,
1,
1001,
1001,
11,
12, //24
1001,
1001,
11,
12,
1002,
0002,
1002,
0002, //32
1202,
0202,
7,
00000800,
3036,
000000000000000000000008000000000000000000000000, //38
#GOGOSTART
11,
1110,
7,
08003030,
11,
1110,
1117,
00000800, //46
1011,
1011,
12,
1110,
1011,
1011,
10002006,
000000000000000000000008000000000000000000000000, //54
#GOGOEND
31,
11,
1011,
0,
32,
12,
1022,
0, //62
#END
