//TJADB Project
TITLE:Doom Noiz
TITLEJA:Doom Noiz
SUBTITLE:--Linda AI-CUE/Galaga Legions
SUBTITLEJA:「ギャラガレギオンズ」より
BPM:160
WAVE:Doom Noiz.ogg
OFFSET:-2.003
DEMOSTART:26.003

COURSE:Oni
LEVEL:10
BALLOON:2,2,2,2,2,2
SCOREINIT:370
SCOREDIFF:85
#START
#GOGOSTART
1011201202102101,
2102102110210211,
1202120211120211,
100200000200100200000200100100100100200100101010,
1011201202112101,
2112021112021120,
2012210210122102,
100000100200200100000200100100200100200100101010,
1011201202102112,
0122102112012210,
1202120211120211,
100200000200100200000200100200100100200100101010,
1011201202112012,
0210211201210211,
1202120211211202,
#BPMCHANGE 160.4
100200100100200100000200100200100200200101010100,//16
#BPMCHANGE 160
#SCROLL 0.7
#BARLINEOFF
#GOGOEND
0000000022222020,
0010200012212212,
1000000022222020,
0010200022122121,
1000000022222020,
0010200012212212,
1000300022222020,
000000100000200000000000202020200200200100200100,
1000000022222020,
0010200022122121,
1000000022221020,
0010200012122221,
1000000022222020,
0010200022122121,
1000300022221020,
000000100000200000000000202020200200100200100200,
1000000022221020,
0070800012122121,
1030000022221020,
0010200021211212,
2000000022221020,
0070800012122121,
2000300022122020,
000000100000200000000000102020200200200100200100,
2000000022221070,
8007080021211212,
2030000022122020,
0010200022121221,
1000000022221070,
8007080021211212,
2000300022122020,
#BPMCHANGE 159.6
000000100000200000000000102020200200100200100200,//48
#BPMCHANGE 160
#SCROLL 1
#BARLINEON
#GOGOSTART
1011201202102101,
2102102111210211,
1202120211120211,
100200000200100200000200100100100100200100101010,
1011201202112101,
2112021112021120,
2012211211202111,
200000100200200100000200100100200100200100101010,
1011201202112101,
2112102112012210,
1202120211120211,
100200000200100200000200100200100100200100101010,
1011201202112012,
1210211201211211,
1202120211211202,
#BPMCHANGE 160.4
100200100100200100100200100200100200200100101010,//64
#BPMCHANGE 160
#GOGOEND
#SCROLL 0.7
#BARLINEOFF
03,
1211202021121020,
14,
2122202022212010,
13,
1211202021121020,
1340,
2122202022212010,
#BARLINEON
#SCROLL 0.9
1222100022122020,
#BARLINEOFF
0010200022121221,
1222100022122020,
0010200012212212,
202020200200100000000000200200100200200000200000,
0010200022121221,
1222100022222020,
000000100000200000000000202020200200200100200100,//80
#SCROLL 1.1
#BARLINEON
#GOGOSTART
1011201202112101,
200101010200100000200100100200000100200200100000,
100200000200100100200100101010100200000200100100,
100200000200100200000200100200100100200100101010,
1011201202112012,
100200100000200101010200000100200100100200100101,
010200000200100200000200100100200100100200000200,
100200101010200100100200100200100200200101010100,//88
#SCROLL 1.4
#GOGOEND
34,
,
#SCROLL 1.5
33004000,
,
#SCROLL 1.6
34,
,
#SCROLL 1.7
3340,
#END

COURSE:Hard
LEVEL:8
BALLOON:3,3,3,3,3,3
SCOREINIT:380
SCOREDIFF:90
#START
#GOGOSTART
3011101101101100,
1101101101101000,
1011101101101000,
1011101101101000,
3011101101101100,
1101101101101000,
1011011011101000,
1011011011101000,
3022201101101000,
1101101101102000,
1022201101102000,
1022201101102000,
3022201101102000,
1101101101102000,
1022011011102000,
#BPMCHANGE 160.4
1022011011107000,//16
#BPMCHANGE 160
#SCROLL 0.7
#BARLINEOFF
#GOGOEND
80002222,
01201222,
10002222,
01202121,
20002222,
01201222,
10302222,
01202121,
20002112,
01201222,
10002112,
01202121,
20002112,
01201222,
10302112,
01202121,
70802222,
01211210,
11002222,
01202121,
70802222,
01211210,
30302222,
01201212,
70800022,
01211210,
11002222,
01201212,
70800022,
01211210,
30302222,
#BPMCHANGE 159.6
01202120,//48
#BPMCHANGE 160
#SCROLL 1
#BARLINEON
#GOGOSTART
3011101101101100,
1101101101101000,
1011101101101000,
1011101101101000,
3011101101101100,
1101101101101000,
1011011011102000,
1011011011102000,
3022201101101000,
1101101101102000,
1022201101101000,
1022201101101000,
3022201101102000,
1101101101102000,
1022011011102000,
#BPMCHANGE 160.4
1022011011107000,//64
#BPMCHANGE 160
#GOGOEND
#SCROLL 0.7
#BARLINEOFF
83,
12212210,
04,
22111220,
03,
12212210,
0340,
22111220,
#BARLINEON
#SCROLL 0.9
30002222,
#BARLINEOFF
01201212,
10002222,
01201222,
10002222,
01201212,
10002222,
01201210,//80
#SCROLL 1.1
#BARLINEON
#GOGOSTART
3022201101101000,
1101101101102000,
1022201101101000,
1022201101101000,
3022201101102000,
1101101101102000,
1022201101102000,
1022201101102000,//88
#SCROLL 1.4
#GOGOEND
34,
,
#SCROLL 1.5
33004000,
,
#SCROLL 1.6
34,
,
#SCROLL 1.7
3340,
,
,
,
,
#END

COURSE:Normal
LEVEL:6
BALLOON:4,4,4,4
SCOREINIT:700
SCOREDIFF:140
#START
#GOGOSTART
30101110,
10101110,
500000000000000000000000000000000000000000000008,
,
30101110,
10101110,
500000000000000000000000000000000000000000000008,
,
30201110,
10201110,
500000000000000000000000000000000008000000000000,
600000000000000000000000000000000008000000000000,
30201110,
10201110,
500000000000000000000000000000000008000000000000,
#BPMCHANGE 160.4
600000000000000000000000000000000000000000000008,//16
#BPMCHANGE 160
#SCROLL 0.725
#BARLINEOFF
#GOGOEND
0022,
01001110,
1022,
01002220,
1022,
01001110,
3300,
,
3022,
01001110,
1022,
01002220,
1022,
01001110,
3300,
,
7008,
00001110,
1022,
01002220,
7008,
00001110,
3300,
,
7008,
00001110,
1022,
01001110,
7008,
00001110,
3300,
#BPMCHANGE 159.6
,//48
#BPMCHANGE 160
#SCROLL 1
#BARLINEON
#GOGOSTART
30101110,
10101110,
500000000000000000000000000000000008000000000000,
600000000000000000000000000000000008000000000000,
30101110,
10101110,
500000000000000000000000000000000008000000000000,
600000000000000000000000000000000008000000000000,
30201110,
10201110,
500000000000000000000000000000000008000000000000,
600000000000000000000000000000000008000000000000,
30201110,
10201110,
500000000000000000000000000000000008000000000000,
#BPMCHANGE 160.4
600000000000000000000000000000000000000000008000,//64
#BPMCHANGE 160
#GOGOEND
#SCROLL 0.725
#BARLINEOFF
03,
1220,
34,
2110,
33,
1220,
3340,
2110,
#BARLINEON
#SCROLL 0.9
1022,
#BARLINEOFF
01001110,
1022,
01001110,
1022,
01001110,
3300,
,//80
#SCROLL 1
#BARLINEON
#GOGOSTART
30201110,
10201110,
11101110,
500000000000000000000000000008000000000000000000,
30201110,
10201110,
11101110,
500000000000000000000000000008000000000000000000,//88
#GOGOEND
34,
,
33004000,
,
34,
,
3340,
,
,
,
,
#END

COURSE:Easy
LEVEL:5
BALLOON:3,3,3,3
#START
#GOGOSTART
3011,
1011,
500000000000000000000000000000000000000000000008,
,
3011,
1011,
500000000000000000000000000000000000000000000008,
,
3011,
1011,
500000000000000000000000000000000008000000000000,
600000000000000000000000000000000008000000000000,
3011,
1011,
500000000000000000000000000000000008000000000000,
#BPMCHANGE 160.4
600000000000000000000000000000000000000000000008,//16
#BPMCHANGE 160
#SCROLL 0.725
#BARLINEOFF
#GOGOEND
02,
0011,
12,
0011,
12,
0011,
3300,
,
32,
0011,
12,
0011,
12,
0011,
3300,
,
7008,
0011,
12,
,
7008,
0011,
3300,
,
7008,
0011,
12,
,
7008,
0011,
3300,
#BPMCHANGE 159.6
,//48
#BPMCHANGE 160
#SCROLL 1
#BARLINEON
#GOGOSTART
3011,
1011,
500000000000000000000000000000000008000000000000,
600000000000000000000000000000000008000000000000,
3011,
1011,
500000000000000000000000000000000008000000000000,
600000000000000000000000000000000008000000000000,
30001110,
10001110,
500000000000000000000000000000000008000000000000,
600000000000000000000000000000000008000000000000,
30001110,
10001110,
500000000000000000000000000000000008000000000000,
#BPMCHANGE 160.4
600000000000000000000000000000000000000000008000,//64
#BPMCHANGE 160
#GOGOEND
#SCROLL 0.725
#BARLINEOFF
03,
,
34,
,
33,
,
34,
,
#BARLINEON
#SCROLL 0.9
12,
#BARLINEOFF
0011,
12,
0011,
12,
0011,
3300,
,//80
#SCROLL 1
#BARLINEON
#GOGOSTART
30101110,
10101110,
1500,
000000000000000000000000000008000000000000000000,
30101110,
10101110,
1500,
000000000000000000000000000008000000000000000000,//88
#GOGOEND
34,
,
34,
,
34,
,
3330,
,
,
,
,
#END
