//TJADB Project
TITLE:Dokimeki Diary
TITLEJA:ドキメキダイアリー
SUBTITLE:--asmi feat. Chinozo / Pokemon Horizons
SUBTITLEJA:アニメ「ポケットモンスター(2023)」より
BPM:185
WAVE:Dokimeki Diary.ogg
OFFSET:-1.162
DEMOSTART:51.583
SONGVOL:100
SEVOL:100
SCOREMODE:2 //Shinuchi:
13370/7440/3630/2080/1540

COURSE:Edit
LEVEL:8
BALLOON:
SCOREINIT:500,1540
SCOREDIFF:128
#START
#BARLINEOFF
#MEASURE 1/4
04,
#BARLINEON
#MEASURE 4/4
0212,
10211021,
0010201020002210,
21202021,
0010212030300000, //6
1110202011102020,
1111102000112020,
1000201011102210,
2011101011200000,
1011201110112011,
1011201110112022,
1011201110112011,
1011202220112022, //14
1011201110112011,
100000100100200000100100100000101010100000100000,
4011201040112010,
3000300030221111,
1022102010221020,
1022102010221020,
1022102010221120,
1022102010112210, //22
1022102010221020,
1022102010221020,
1111202011112020,
1000201111112000,
2210221022102210,
2000201020000011,
2002101020021010,
200000000200100000100000200000001000100020002000, //30
10212021,
2010201020002220,
1020102011102010,
2010201110102110,
1022101120112011,
2020221120112000,
2011202011202011,
2220112220112020, //38
1001002010010020,
11112222111120
#GOGOSTART
30, //40
0000201020112010,
2211201020112030,
0010201020102022,
1020102012102022,
1120112011201120,
1122112210201022,
1020102210102022,
1022122010100040, //48
1110201020112010,
2211201020112030,
0010201020102022,
1020102012102022,
1120112011201120,
1122112210201022,
100000200000100000200200100000100000200000101010,
1022201020003000, //56
1022102210221022,
1111201020211010,
21212122,
1122112211221122,
1020102010221020,
1111202011201020,
1010201020112010,
2011101010102000, //64
#GOGOEND
1000101020101011,
2010001020222020,
3,
0,
0, //69
#END

COURSE:Oni
LEVEL:6
BALLOON:
SCOREINIT:600,2180
SCOREDIFF:165
#START
#BARLINEOFF
#MEASURE 1/4
02,
#BARLINEON
#MEASURE 4/4
0222,
20222002,
02222020,
20002025,
000000000000000008000000100000100000000000000000, //6
1000201011102020,
1110201000102010,
1000201011102020,
11210300,
10212121,
10210121,
10212121,
1000201000102011, //14
10212121,
11210122,
11211121,
3000302030222000,
12212122,
1000201000102220,
11221122,
1010201000102220, //22
12212122,
1010201000102220,
11221122,
1000201110102000,
21212121,
500000000000000000000000000000000000000008000000,
10212021,
10211300, //30
10212021,
01212021,
12212021,
0010201010002220,
10212121,
2010101020112000,
1022201020201022,
21221222, //38
3003003030030030,
3000022
#GOGOSTART
3, //40
0010200011102000,
1110202011102030,
01211022,
1110200010002011,
1020102011102010,
1110201010102020,
12121122,
32323303, //48
0010200011102000,
1000202011102030,
01211022,
1110200010102011,
1020102011102010,
1110201010102020,
12121122,
600000000000000008000000300000100100200000000000, //56
1000100010221020,
1110201000211020,
11211121,
3020302030211020,
1000100010221020,
1110202000211010,
21212121,
1021101010201000, //64
#GOGOEND
10221222,
1020002010222020,
1,
0,
0, //69
#END

COURSE:Hard
LEVEL:4
BALLOON:33,31
SCOREINIT:810,4010
SCOREDIFF:230
#START
#BARLINEOFF
#MEASURE 1/4
#SCROLL 0.86
07,
#BARLINEON
#MEASURE 4/4
0,
0,
0,
80001015,
000000000000000008000000000000000000000000000000, //6
10212120,
11210120,
10212120,
11210300,
1222,
10220000,
1222,
10220000, //14
1222,
10220000,
10201110,
3330,
10210120,
10210110,
11201120,
11210000, //22
10210120,
10210110,
10212120,
10111020,
10212120,
500000000000000000000000000000000000000008000000,
1221,
10201300, //30
10011001,
01011000,
10111011,
01111000,
10202021,
20202120,
9,
0, //38
000090000000000000000800,
0000000
#GOGOSTART
3, //40
01201120,
10111003,
01111020,
10201016,
0,
000000000000000000000008000000000000000000000000,
11201111,
30303303, //48
01201120,
10111003,
01111020,
10201106,
0,
000000000000000000000008000000000000000000000000,
10201111,
600000000000000008000000300000000000000000000000, //56
10101210,
10110220,
10101111,
3333,
10101210,
10110202,
10101111,
10101210, //64
#GOGOEND
10201110,
11011020,
1,
0,
0, //69
#END

COURSE:Normal
LEVEL:3
BALLOON:22,21
SCOREINIT:1180,8600
SCOREDIFF:565
#START
#BARLINEOFF
#MEASURE 1/4
#SCROLL 0.86
07,
#BARLINEON
#MEASURE 4/4
0,
0,
0,
80001005,
000000000000000008000000000000000000000000000000, //6
11,
10020000,
11,
10020000,
11,
1,
11,
1, //14
22,
2,
11,
3330,
10010000,
10010000,
1011,
1, //22
10010000,
10010000,
1011,
11,
5,
000000000000000000000000000000000000000000000008,
0,
22, //30
10001001,
02,
10001001,
02,
11,
1111,
9,
0, //38
000090000000000000000800,
0000000
#GOGOSTART
3, //40
0111,
10001003,
0011,
10001006,
0,
000000000000000000000008000000000000000000000000,
11,
30303003, //48
0111,
10001003,
0011,
10001006,
0,
000000000000000000000008000000000000000000000000,
11,
600000000000000000000008000000000000000000000000, //56
1110,
10010000,
1110,
3333,
1110,
10010000,
1111,
1210, //64
#GOGOEND
11,
1012,
1,
0,
0, //69
#END

COURSE:Easy
LEVEL:1
BALLOON:18,17
SCOREINIT:1270,16260
SCOREDIFF:1080
#START
#BARLINEOFF
#MEASURE 1/4
#SCROLL 0.86
07,
#BARLINEON
#MEASURE 4/4
0,
0,
0,
8,
0, //6
1,
1,
1,
0,
1,
0,
1,
0, //14
2,
0,
11,
3330,
1,
1,
11,
1, //22
1,
1,
11,
1,
5,
000000000000000000000000000000000000000000000008,
0,
2, //30
11,
0,
22,
0,
1,
11,
9,
0, //38
000090000000000000000800,
0000000
#GOGOSTART
3, //40
0,
10000003,
0,
10000006,
0,
000000000000000000000008000000000000000000000000,
11,
30000003, //48
0,
10000003,
0,
10000006,
0,
000000000000000000000008000000000000000000000000,
11,
600000000000000000000008000000000000000000000000, //56
11,
1,
11,
3330,
11,
1,
11,
1110, //64
#GOGOEND
1,
1,
1,
0,
0, //69
#END
