//TJADB Project
TITLE:Yume o Kanaete Doraemon
TITLEJA:夢をかなえてドラえもん
SUBTITLE:--mao/Doraemon
SUBTITLEJA:「ドラえもん」より
BPM:123
WAVE:Yume o Kanaete Doraemon.ogg
OFFSET:-2.134
DEMOSTART:56.646

COURSE:Oni
LEVEL:4
SCOREINIT:810
SCOREDIFF:238
#START
101101200200,
100100201200,
101101200200,
122122122122,
100100102201,
100100102201,
100101100200,
122122101200,
100100102201,
100100102201,
100101100200,
102102122122,
100100102201,
100100102201,
100101100200,
101202001202,
100100102201,
100100102200,
102101202102,
100102122111,
1012,
100101102200,
1012,
100101102200,
1012,
100102022112,
100100100101,
221221221122,//28
#GOGOSTART
101102001101,
100100122122,
101102001101,
100200202112,
101102001101,
100101202202,
100011202020100011202020,
100122122122,
101202001101,
100102122122,
101202001101,
100200202122,
101202001101,
100101202202,
100011202020100011202020,
100011202020102020102020,
100222101204,//45
#GOGOEND
#END

COURSE:Hard
LEVEL:2
BALLOON:7,7,10
#START
101100200200,
1122,
101100200200,
101101101101,
100100102200,
100100102200,
100101000000,
200202000000,
100100102200,
100100102200,
100101000000,
7008,
100100102200,
100100102200,
101101101101,
202202000000,
100100102200,
100100102200,
100101000000,
7008,
11,
1120,
11,
2220,
11,
100101000000,
1111,
500000000000000000000000000008000000000000000000,//28
#GOGOSTART
100102001101,
100101100200,
100102001101,
100101100200,
100102001101,
100101100200,
3333,
600000000000000000000008000000000000000000000000,
101102001101,
100101100200,
101102001101,
100101100200,
101102001101,
100101100200,
3232,
3333,
9009,//45
#GOGOEND
8,
#END

COURSE:Normal
LEVEL:1
BALLOON:5,6
#START
11,
1110,
11,
500000000000000000000000000008000000000000000000,
1110,
1110,
1100,
2200,
1110,
1110
1100,
70000800,
1110,
1110,
1101,
500000000000000000000000000008000000000000000000,
1110,
1110,
1100,
500000000000000000000008000000000000000000000000,
11,
12,
11,
12,
11,
1110,
1110,
2220,//28
#GOGOSTART
1100,
1110,
1100,
1110,
1100,
1110,
33,
600000000000000000000008000000000000000000000000,
1100,
1110,
1100,
1110,
4400,
1110,
33,
3333,
9009,//45
#GOGOEND
8,
#END

COURSE:Easy
LEVEL:1
BALLOON:7
#START
11,
1110,
11,
500000000000000000000000000008000000000000000000,
11,
11,
1100,
2200,
11,
11,
1100,
500000000000000000000008000000000000000000000000,
11,
11,
1100,
2200,
11,
11,
1100,
500000000000000000000008000000000000000000000000,
11,
12,
11,
12,
11,
1110,
11,
1110,//28
#GOGOSTART
1100,
1110,
1100,
1110,
1100,
1110,
33,
600000000000000000000008000000000000000000000000,
1100,
1110,
1100,
1110,
1100,
1110,
33,
3333,
9009,//45
#GOGOEND
8,
#END
