//TJADB Project
TITLE:Chronomia
TITLEJA:Chronomia
SUBTITLE:--Lime
SUBTITLEJA:Lime
BPM:113.5
WAVE:Chronomia.ogg
OFFSET:-2.624
DEMOSTART:70.292

COURSE:Oni
LEVEL:10
BALLOON:
SCOREINIT:1040
SCOREDIFF:0
#START
4000000020020022,
0220000020202020,
2000000020020022,
00002222, //4
#BPMCHANGE 227
3,
10020020,
30030030,
0000222020102010, //8
10122010,
21122010,
20121122,
0010101110101000,
4011104000104011,
100000400000000000000000202020200200200000100000, //14
20101012,
10102210,
20121020,
1110100020002020, //18
20122010,
11101220,
20122010,
1110102000101111, //22
2000100011101020,
1000100010201110,
10121010,
1110102010201000, //26
10121010,
1110100010201000,
1000102010001110,
1000222211212121, //30
1020122010221012,
2110201220221120,
100111200400000400000400,
0022101202101110,
2211101122111040,
0021201122112210, //36
41030041,
0030222212121210,
41040041,
0040112211112210, //40
1000102012201000,
1220102210201220,
1000102012201000,
1220102210221222, //44
1000102012201000,
1220102212201022,
1022201022101012,
2012101110200010, //48
1111201110201010,
2011102012022000,
1111201110201010,
2011102000000020, //52
#MEASURE 5/4
20000000
#BPMCHANGE 113.5
012220020020,
#MEASURE 4/4
220000000200000000200000220000000000200000000200,
21,
2111, //56
#BPMCHANGE 227
#GOGOSTART
3000221210102010,
1110102220122010,
0022201220102210,
1010201020112211, //60
1000221210102010,
1110102220122010,
0022201022202220,
1220122012201220, //64
3000221210102010,
1110101220102000,
30040040,
0022202010102010, //68
1000122220102010,
2220122220102220,
2110102110102220,
0011101110102010, //72
2011201120112011,
2220201120112111,
2011201120112011,
2111211121112011,
2011201120112011,
2211221122111110, //78
#GOGOEND
4011104010004000,
1110400022200020,
#MEASURE 7/4
400000000000000020000000
#BPMCHANGE 113.5
0021, //81
#MEASURE 4/4
2000002120000021,
2000000000000112,
2000012220001000,
2002001000000000, //85
1001202120012021,
2001202012102122,
#MEASURE 8/4
#BPMCHANGE 227
#SCROLL 0.5
10002022101020101110201120202000,
#MEASURE 4/4
#BPMCHANGE 113.5
#SCROLL 1
20020040000000
#SCROLL 2
21, //89
#BPMCHANGE 227
#SCROLL 1
#GOGOSTART
2011102011102010,
2011102011102010,
2011102011102010,
2111211120111020, //93
2011102011112020,
2011102011202010,
2012102012102010,
2111211121212110, //97
2011102011102010,
2011102011102010,
2011102011102010,
2111211120111020, //101
4011104011104011,
2010400011104000,
#GOGOEND
30030030,
201010201010400100000000, //105
#GOGOSTART
33233233,
200300300200300111100300,
32332332,
33233333, //109
23323323,
300200300111100300300200,
33233233,
200300111100300300300300, //113
#GOGOEND
#MEASURE 2/4
#BPMCHANGE 113.5
0,
#MEASURE 4/4
42,
222200000000000000000000000000000000000000000000,
0, //117
#END

COURSE:Hard
LEVEL:8
BALLOON:
SCOREINIT:1560
SCOREDIFF:0
#START
4000000020020022,
0220000020202020,
2000000020020022,
00002222, //4
#BPMCHANGE 227
3,
10020020,
30030030,
00202011,
10220010,
20220010,
20020022,
01111110,
40140140,
14002220, //14
2111,
1122,
10121020,
11102022,
2111,
10102220,
2121,
1010102000101011, //22
1111,
1122,
10121020,
11102020,
10121010,
11102220,
10121011,
10221120, //30
11201202,
11221120,
11140404,
02110111,
20102214,
02202121, //36
41030041,
03001111,
41040041,
0040000011102000,
1122,
1222,
500000000000000008000000200000000000200000000000,
500000000000000008000000200000000000200000000000, //44
10210220,
11121110,
12202101,
10210200,
11201201,
20120020,
11201201,
20120002, //52
#MEASURE 5/4
20000000
#BPMCHANGE 113.5
012220020020,
#MEASURE 4/4
2002002020002002,
21,
2111, //56
#BPMCHANGE 227
#GOGOSTART
30211021,
10122121,
02102220,
11212121,
20221120,
11120121,
02212220,
12121212, //64
30211021,
10122120,
30040040,
02221120,
10122021,
20122122,
10111022,
0011101010002000, //72
21212121,
22210121,
21212121,
22211020,
21212121,
22210121, //78
#GOGOEND
40140040,
1010400022200020,
#MEASURE 7/4
400000000000000020000000
#BPMCHANGE 113.5
0021,
#MEASURE 4/4
2000002120000021,
2000000000000112,
2000012220001000,
2002001000000000, //85
1000202120002021,
2000202010102022,
#MEASURE 8/4
#BPMCHANGE 227
#SCROLL 0.5
1022112120212220,
#MEASURE 4/4
#BPMCHANGE 113.5
#SCROLL 1
20020040000000
#SCROLL 2
21, //89
#BPMCHANGE 227
#SCROLL 1
#GOGOSTART
20111121,
20111121,
2000101011102000,
21212012,
20111122,
20112110,
20121120,
2220222020202000, //97
40111121,
20111121,
2000101011102000,
21212012,
40140140,
2010400011104000,
#GOGOEND
30030030,
111111100000, //105
#GOGOSTART
33033033,
0030300030111030,
30330330,
33033333,
03303303,
3000301110303000,
33033033,
0030111030303030, //113
#GOGOEND
#MEASURE 2/4
#BPMCHANGE 113.5
0,
#MEASURE 4/4
42,
2,
0, //117
#END

COURSE:Normal
LEVEL:7
BALLOON:
SCOREINIT:2060
SCOREDIFF:0
#START
4000000020020022,
0220000020202000,
2000000020020022,
00002220, //4
#BPMCHANGE 227
3,
10010010,
30030030,
00000011,
10020020,
20220010,
10000022,
0011,
40040040,
04002000, //14
1111,
1120,
1111,
11102000,
1111,
1120,
1111,
11020110, //22
1111,
1120,
1111,
11102000,
1111,
1122,
1111,
10222000, //30
11101101,
1111,
10040404,
00010110,
20202204,
02202020, //36
40030040,
03001110,
40040040,
04003000,
1111,
2222,
500000000000000008000000000000000000200000000000,
500000000000000008000000000000000000200000000000, //44
10110220,
10101110,
20202202,
20110000,
10200200,
20020000,
10200200,
20020002, //52
#MEASURE 5/4
20000000
#BPMCHANGE 113.5
002020020020,
#MEASURE 4/4
2002002020002002,
21,
2111, //56
#BPMCHANGE 227
#GOGOSTART
3212,
10220111,
01102220,
1222,
2212,
10110222,
02202220,
1111, //64
3212,
10110220,
30040040,
00222020,
10222020,
10111020,
10101022,
01111020, //72
20202220,
20210120,
20202220,
20210020,
20202220,
20210120, //78
#GOGOEND
40040040,
10402200,
#MEASURE 7/4
400000002000
#BPMCHANGE 113.5
02,
#MEASURE 4/4
20022002,
2000000000000110,
2000010220001000,
2002001000000000, //85
10222022,
20201022,
#MEASURE 8/4
#BPMCHANGE 227
#SCROLL 0.5
1010111020202220,
#MEASURE 4/4
#BPMCHANGE 113.5
#SCROLL 1
20020040000000
#SCROLL 2
22, //89
#BPMCHANGE 227
#SCROLL 1
#GOGOSTART
20111022,
20111022,
20111020,
21212022,
20111022,
20111020,
20120120,
22222020, //97
20111022,
20111022,
20111020,
21212010,
40040040,
2414,
#GOGOEND
30030030,
11111000, //105
#GOGOSTART
11011011,
01101101,
10110110,
11011113,
01101101,
10110110,
33033033,
03333333, //113
#GOGOEND
#MEASURE 2/4
#BPMCHANGE 113.5
0,
#MEASURE 4/4
42,
2,
0, //117
#END

COURSE:Easy
LEVEL:5
BALLOON:
SCOREINIT:3710
SCOREDIFF:0
#START
40002002,
02002020,
20002002,
02, //4
#BPMCHANGE 227
3,
1,
30030030,
0,
10020000,
20020000,
1002,
0,
40040040,
04002000, //14
11,
11,
11,
1110,
11,
11,
11,
10020010, //22
11,
11,
11,
1110,
11,
11,
11,
2220, //30
11,
1110,
10040404,
0,
20002004,
02, //36
30030030,
03001000,
40040040,
04003000,
1110,
2220,
500000000000000008000000000000000000000000000000,
500000000000000008000000000000000000000000000000, //44
10050000,
000000000000000000000000000008000000000000000000,
2220,
20010000,
00200200,
20020000,
00200200,
20020000, //52
#MEASURE 5/4
20
#BPMCHANGE 113.5
020,
#MEASURE 4/4
2022,
21,
2111, //56
#BPMCHANGE 227
#GOGOSTART
3110,
10020010,
0100,
12,
2220,
10010020,
0220,
11, //64
3110,
10010020,
30040040,
0220,
2220,
1110,
1102,
0110, //72
2222,
20010020,
2222,
20010020,
2222,
20010020, //78
#GOGOEND
40040040,
0400,
#MEASURE 7/4
400020
#BPMCHANGE 113.5
0,
#MEASURE 4/4
22,
2,
22,
2, //85
1220,
21,
#MEASURE 8/4
#BPMCHANGE 227
#SCROLL 0.5
11102220,
#MEASURE 4/4
#BPMCHANGE 113.5
#SCROLL 1
20020040000000
#SCROLL 2
10, //89
#BPMCHANGE 227
#SCROLL 1
#GOGOSTART
1011,
1011,
11,
2220,
1011,
11,
20020050,
000000000000000000000000000008000000000000000000, //97
1011,
1011,
11,
2220,
40040040,
1110,
#GOGOEND
30030060,
000000000000000000000000000008000000000000000000, //105
#GOGOSTART
10010010,
01001001,
00100100,
10010101,
01001001,
00100100,
30030030,
03030303, //113
#GOGOEND
#MEASURE 2/4
#BPMCHANGE 113.5
0,
#MEASURE 4/4
42,
2,
0, //117
#END
