//TJADB Project
TITLE:RHYTHM CONNECT
TITLEJA:RHYTHM CONNECT
SUBTITLE:--TRIANGLE / "Taiko no Tatsujin: RHYTHM CONNECT" Theme Song
SUBTITLEJA:TRIANGLE 「太鼓の達人 RHYTHM CONNECT」テーマソング
BPM:122
WAVE:RHYTHM CONNECT.ogg
OFFSET:-2.069
DEMOSTART:49.241
SONGVOL:100
SEVOL:100
SCOREMODE:2 //Shinuchi:
6420/3960/2010/1460

COURSE:Oni
LEVEL:8
BALLOON:6,6
SCOREINIT:470,1550
SCOREDIFF:120
#START
#GOGOSTART
3000400212202022,
11304112,
1012021122120020,
1221220210211020,
#GOGOEND
1020120010210121,
0020120010210121,
0020120010210121,
0010120011202000, //8
1000200110112001,
1010201000112001,
1010201102112020,
1210221022112001,
1000200110112001,
1010221202102001,
1011201102112010,
3334, //
1000100110201020,
1010201000112020,
1000101110201021,
1010201000112021,
1000100110201021,
1010201000112006,
000000000000000000000000000000000000000008000000,
01124022, //24
#GOGOSTART
3000400211202011,
11202122,
1110112211120101,
1110221100002020,
3000400211202011,
1022102210102020,
1022110110110022,
00
#GOGOEND
30000040012122, //32
1020120010210121,
0020120010210121,
0020120010210121,
0010120010012122,
1021001021012122,
1021001021010222,
1121201012120101,
1212102030012122, //40
1021001021012122,
1021001021010222,
1121211012120101,
0112102010007000,
0802110101011011,
2002110101121010,
2002112101122011,
1011201020007000,
0802110101101110,
2002112101121010,
2011102210201022,
12114022, //52
#GOGOSTART
3000400211202011,
11202122,
1110112211120111,
1120221100002020,
3000400211202212,
1022102210102020,
1011121210110022,
00
#GOGOEND
30110101012121, //60
#GOGOSTART
1010202110010011,
1010201011212020,
3000400211202011,
11202122,
1010202110010011,
1010202212112020,
3000400211202010,
0030201010212010,
0030201110212210,
0030201111212210,
#GOGOEND
3,
0, //72
#END

COURSE:Hard
LEVEL:6
BALLOON:12,5,5
SCOREINIT:500,2220
SCOREDIFF:130
#START
#GOGOSTART
30402220,
33304010,
0010010010010010,
70000008,
#GOGOEND
1020220010020011,
0020220010020011,
0020220010020011,
0020220010202000, //8
1000200110102000,
11210120,
1010201100102000,
11210020,
1000200110102000,
11210120,
1010201100102000,
3334, //16
1000100110101020,
11010120,
10121212,
11010120,
1000100110101020,
1010001000101006,
000000000000000000000000000000000000000008000000,
01104020, //24
#GOGOSTART
3000400110102011,
11102110,
1110101010200110,
1110101100002000,
3000400110102011,
12121122,
1020110110110010,
0
#GOGOEND
3004020, //32
1020220010020011,
0020220010020011,
0020220010020011,
0020220010002000,
1011001011002000,
1011001011002000,
1010201010110101,
0110102030002000, //40
1011001011002000,
1011001011002000,
1011101010110000,
11333070,
0080100101101010,
2000100101101010,
2000100101101010,
1011101020007000,
0080100101101010,
2000100101101010,
100000600000000000000000000000000000000000000008,
0142, //52
#GOGOSTART
3000400110102011,
11102110,
1110101010200110,
1110101100002000,
3000400110102011,
12121122,
1020111010110010,
0
#GOGOEND
3004020, //60
#GOGOSTART
1010201010010011,
11211020,
3000400110102011,
11102110,
1010201010010011,
12121120,
3000400110102010,
0030102010111010,
0030102010111010,
0030102220111010,
#GOGOEND
3,
0, //72
#END

COURSE:Normal
LEVEL:4
BALLOON:10,4,4
SCOREINIT:680,4880
SCOREDIFF:210
#START
#GOGOSTART
3402,
3340,
9009,
8,
#GOGOEND
1210,
1210,
1210,
12, //8
1012,
10010020,
1012,
10010020,
1012,
10010020,
1012,
3330, //16
11,
11010000,
11,
11010000,
11,
1010001000000006,
000000000000000000000000000000000000000008000000,
04, //24
#GOGOSTART
30401110,
1120,
10101100,
10110000,
30401110,
1121,
10101100,
0
#GOGOEND
3004000, //32
1210,
1210,
1210,
01002000,
10010000,
10010000,
1120,
1130, //40
10010000,
10010000,
1120,
3337,
08100010,
2101,
2101,
1127,
08100010,
2101,
600000000000000000000000000000000000000000000008,
04, //52
#GOGOSTART
30401110,
1120,
10101100,
10110000,
30401110,
1121,
10101100,
0
#GOGOEND
3004000, //60
#GOGOSTART
10101001,
01101000,
30401110,
1112,
10101001,
01101000,
30401110,
03003040,
03003040,
03003330,
#GOGOEND
3,
0, //72
#END

COURSE:Easy
LEVEL:2
BALLOON:8,5,3,3,5
SCOREINIT:650,8430
SCOREDIFF:253
#START
#GOGOSTART
3,
33,
9009,
8,
#GOGOEND
11,
11,
11,
2, //8
1,
1,
11,
1,
2,
2,
22,
33, //16
11,
2,
11,
2,
11,
2000000000000006,
000000000000000000000000000000000000000008000000,
04, //24
#GOGOSTART
3410,
11,
1110,
1100,
3410,
700000000000000000000000000000080000000000000000,
12,
0
#GOGOEND
3000000, //32
11,
11,
11,
2,
1,
1,
11,
1130, //40
1,
1,
11,
3337,
08000010,
2001,
2001,
1027,
08000010,
2001,
600000000000000000000000000000000000000000000008,
04, //52
#GOGOSTART
3410,
11,
1110,
1100,
3410,
700000000000000000000000000000080000000000000000,
12,
0
#GOGOEND
3000000, //60
#GOGOSTART
10001001,
01,
3410,
11,
11,
1110,
3410,
000000300000000000000000600000000008000000000000,
000000300000000000000000600000000008000000000000,
03003030,
#GOGOEND
3,
0, //72
#END
