//TJADB Project
TITLE:Daizerokan
TITLEJA:第ゼロ感
SUBTITLE:--Taiko Team cover ver. / THE FIRST SLAM DUNK
SUBTITLEJA:Taiko Team cover ver. / 「THE FIRST SLAM DUNK」より
BPM:150
WAVE:Daizerokan.ogg
OFFSET:-0.867
DEMOSTART:55.062 //Shinuchi:
11080/5800/3140/2230

COURSE:Oni
LEVEL:7
BALLOON:26,15,14,17
SCOREINIT:710,2340
SCOREDIFF:178
#START
1010201110102010,
1010201110102010,
1010201110102010,
1010201110102022,
1010201110102010,
1010201110102010,
1010201110102010,
1010202212222222, //8
#GOGOSTART
1001201011012010,
1001201011012010,
1001201011012010,
1001201022021020,
1001201011012010,
1001201011012010,
#GOGOEND
11201112,
00000001, //16
1011002010011010,
0010202020220220,
1011002010011020,
0020002010212010,
1011002010011010,
0020020020020020,
7,
000000000000000000000000000008000000000000100000, //24
1020201010112020,
1010201010112010,
1020201010112020,
1010201010222010,
1020201010112020,
1010201010112011,
11111117,
00000008,
20020020,
20020020, //34
#GOGOSTART
3000102210201010,
1011201010222011,
1020102210101000,
600000000000000000000000000000000000000008000000,
3000102210201010,
1011201010222011,
1020102210101000,
600000000000000000000000000000000000000008000000, //42
1000101120201020,
1011102010222010,
1000101120201011,
1020101120201020,
1000102210201010,
1011201010222011,
1020102210101000,
600000000000000000000000000000000000000008000000, //50
1001201011012010,
1001201011012010,
1001201011012010,
70000008,
1001201011012010,
1001201011012010,
1001201011012010,
700000000000000000000000000000000000000000000008,
#GOGOEND
0,
0,
0,
0, //62
#END

COURSE:Hard
LEVEL:5
BALLOON:22,12,12,14
SCOREINIT:740,3290
SCOREDIFF:195
#START
11201020,
11201020,
11201020,
1010200010001011,
11201020,
11201020,
11201020,
1010200010222020, //8
#GOGOSTART
1000201010011010,
1000201010011010,
1000201010011010,
1000101020022020,
1000201010011010,
1000201010011010,
#GOGOEND
11201112,
0, //16
1010000010011010,
0002,
1010000010011010,
00001110,
1010000010011010,
0020020020020020,
7,
000000000000000000000000000008000000000000000000, //24
1010201020111020,
02112120,
1010201020111020,
02111220,
1010201020111020,
02112120,
10111119,
000000000000000000000000000000000090000000000008,
0,
0, //34
#GOGOSTART
3000101110201010,
10201220,
1000101110101000,
600000000000000000000000000000000000000008000000,
3000101110201010,
10201220,
1000101110101000,
600000000000000000000000000000000000000008000000, //42
1000101110201010,
10201220,
10112211,
11221120,
1000101110201010,
10201220,
1000101110101000,
600000000000000000000000000000000000000008000000, //50
1000201010011010,
1000201010011010,
1000201010011010,
70000008,
1000201010011010,
1000201010011010,
1000201010011010,
700000000000000000000000000000000000000000000008,
#GOGOEND
0,
0,
0,
0, //62
#END

COURSE:Normal
LEVEL:5
BALLOON:15,9,8,9
SCOREINIT:1080,6090
SCOREDIFF:378
#START
11,
11,
11,
10001022,
11,
11,
11,
1, //8
#GOGOSTART
1000000010010010,
1000000010010010,
1000000010010010,
1000000020020020,
1000000010010010,
1000000010010010,
#GOGOEND
20202002,
0, //16
1010000010010010,
0,
1010000010010010,
0,
1010000010010010,
0,
7,
000000000000000000000000000008000000000000000000, //24
10110101,
01000000,
10110101,
01000000,
10110101,
01000000,
20220209,
000000000000000000000000000000000090000000000008,
0,
0, //34
#GOGOSTART
30111010,
1210,
10111010,
600000000000000000000000000000000000000008000000,
30111010,
1210,
10111010,
600000000000000000000000000000000000000008000000, //42
10111010,
1210,
20111010,
20111010,
10111010,
1210,
10111010,
600000000000000000000000000000000000000008000000, //50
1000000010010010,
1000000010010010,
1000000010010010,
70000008,
1000000010010010,
1000000010010010,
1000000010010010,
700000000000000000000000000000000000000000000008,
#GOGOEND
0,
0,
0,
0, //62
#END

COURSE:Easy
LEVEL:3
BALLOON:12,7,4,7
SCOREINIT:1150,11710
SCOREDIFF:763
#START
1,
1,
1,
1,
1,
1,
1,
1, //8
#GOGOSTART
11,
1,
11,
1,
11,
1,
#GOGOEND
20002002,
0, //16
10000001,
0,
10000001,
0,
10000001,
0,
7,
000000000000000000000000000008000000000000000000, //24
10010001,
0,
10010001,
0,
10010001,
0,
20020009,
000000000000000000000000000000000090000000000008,
0,
0, //34
#GOGOSTART
3110,
1110,
1110,
600000000000000000000000000008000000000000000000,
3110,
1110,
1110,
600000000000000000000000000008000000000000000000, //42
1110,
1110,
2011,
12,
1110,
1110,
1110,
600000000000000000000000000008000000000000000000, //50
11,
1,
11,
70000800,
11,
1,
11,
700000000000000000000000000000000000000000000008,
#GOGOEND
0,
0,
0,
0, //62
#END
