TITLE:Unwelcome School (MRM REMIX)
TITLEJA:Unwelcome School (MRM REMIX)
SUBTITLE:--Morimori Atsushi/Blue Archive
SUBTITLEJA:ミツキヨ Remixed by モリモリあつし モバイルゲーム「ブルーアーカイブ」より
BPM:190
OFFSET:-1.052
DEMOSTART:11.157
WAVE:Unwelcome School (MRM Remix).ogg //SONG_ID:unwelc

COURSE:Edit
LEVEL:10
BALLOON:3,7,5,5,5
SCOREINIT:810
SCOREDIFF:0
#START
1000100020020020,
1010202010120000,
22121121,
12112010,
100000000000200000200000100000100100500008000000,
1122102010112000,
2020102010112010,
2278, //8
#GOGOSTART
1011201120120211,
1010221020120022,
1010221020221120,
1210112120404000,
1011201120120211,
1010221020120022,
1010221020221120,
1111212120222000,
1011201120120211,
1010221020120022,
1010221020221120,
1210112120404000,
1011201120120211,
1010221020120022,
1010221020221120,
1111212122204000, //24
#GOGOEND
12112211,
12112211,
300000222222111111222222,
200000111111222222111111,
12112211,
12112211,
3000001110002000,
1022102210104000,
1022101120201010,
1022101120201010,
300122122122,
102220102220102220300000,
1010201110102011,
2121212122222222,
100000000000200000200200100100202020100100200100,
202020100100200200100000000000400000400000000000, //40
1000201000111010,
1000201000111010,
1000201000111010,
1002001020221010,
1000201010111010,
1000201010111010,
1000201010111010,
1022011021112000,
1022102210210211,
2022101022120010,
1022102210212212,
1110121120004000,
1022102210210211,
2022101022120010,
1022102210212212,
7084, //56
#GOGOSTART
1122112211221122,
1122101210111010,
2211211121112221,
200000000000101010101010200000400000400000000200,
1112112112112111,
1022101011102211,
2111211121112111,
500000000000000008000000200200200200200000000000,
3020112010211120,
1121112010211120,
1121112110211120,
1121112110404000,
1020112012212212,
1021112012212212,
1010101110101011,
1111111122222000, //72
#GOGOEND
100100202002,
101221202002,
202101202101,
101201200100,
100000100002200020002000,
221211,
100000200200200200111010,
2010202010112000,
1000100020020020,
1010202010120000,
22121121,
12112010,
1000100020020020,
1010202010120000,
22121121,
12117080,
22117080, //89
3000200030020020,
3020302030120000,
#GOGOSTART
1022102210212212,
1120121120404000,
1022102210210211,
2022101022120010,
1022102210212211,
1212112122204000,
#GOGOEND
1112111211121112,
1112112211112211,
1112112212221222,
100000212121200400400111,
200100212121,
200010002000100020001000200100200100201020102010,
1122121211221112,
7000802211112000, //105
1111111121112111,
1111111121112111,
2222222212221222,
1011102210404000,
1111111111112211,
1111111111112211,
2222222222221122,
100200100200100200100200202020202020202020202020,
10212111,
2010201000111011,
20212111,
41210131,
3010201020101011,
2110201000404000,
100000000000200000200200100100202020100100200100,
202020100100200200100000000000000000300000000000,
0, //122
#END

COURSE:Oni
LEVEL:9
BALLOON:6,4,4,6
SCOREINIT:1020
SCOREDIFF:0
#START
1000100020020020,
1010202010120000,
22121121,
12112010,
1000100020020020,
1010202010120000,
22121121,
2223, //8
#GOGOSTART
1010201120120020,
1010221020120000,
2020111020101020,
1110201020404000,
1010201120120020,
1010221020120000,
2020111020101020,
1110201022222000,
1010201120120020,
1010221020120000,
2020111020101020,
1110201020404000,
1010201120120020,
1010221020120000,
2020111020101020,
1110201022204000, //24
#GOGOEND
12112211,
12112211,
300222222222,
200111111111,
12112211,
12112211,
3000001110002000,
1002100210104000,
12112211,
12112211,
300122122122,
122122122300,
1010201110102010,
1110111022202220,
10212111,
21210440, //40
1000100020020020,
1010201020220000,
22121121,
12112010,
1000100020020020,
1010201020220000,
22121121,
22112010,
1022102010210010,
1022102010210010,
1022102010210210,
1110101120004000,
1022102010210010,
1022102010210010,
1022102010210210,
7084, //56
#GOGOSTART
1110111011101110,
1122101010111010,
2211201120112011,
200000101010200400400000,
2102102102102111,
100000200000100000100000500000000008000000000000,
1110111011101110,
500000000000000008000000200200200200200000000000,
3020112010201120,
1020112010201120,
1020112010201120,
1020101110404000,
1020112012012012,
1020112012012012,
1010101110101011,
1110111022204000, //72
#GOGOEND
100100202000,
101201202000,
202101202101,
101201200100,
100222,
222111,
10222210,
2010202010112000,
1000100020020020,
1010202010120000,
22121121,
12112010,
1000100020020020,
1010202010120000,
22121121,
12117080,
22117080, //89
33,
3334,
#GOGOSTART
2020111020121020,
1110221020404000,
3000400040040020,
1010221020120000,
2020111020121020,
1110221022204000,
#GOGOEND
1110111011101110,
1122101110102210,
1122112211221122,
100000000000200020002000200000400000400000100100,
200100202020,
200010002000100020001000200100200100500008000000,
1122102211221110,
1000102210004000, //105
1110111021112010,
1110111021112010,
2220222012221222,
1000102210404000,
1111111111112010,
1111111111112010,
2222222222221020,
1212121270000000,
80202011,
20200111,
10202011,
40200111,
3000200020101011,
21210440,
1000202211221010,
2211221000003000,
0, //122
#END

COURSE:Hard
LEVEL:8
BALLOON:5,5,5,3,3,3,5
SCOREINIT:1480
SCOREDIFF:0
#START
1000100020020020,
11112200,
22201110,
11112010,
1000100020020020,
11112200,
22201110,
2223, //8
#GOGOSTART
1000100020020010,
1010101020220000,
22201110,
11112040,
1000100020020010,
1010101020220000,
22201110,
22222040,
1000100020020010,
1010101020220000,
22201110,
11112040,
1000100020020010,
1010101020220000,
22201110,
22222040, //24
#GOGOEND
10102210,
10102210,
78,
78,
10102210,
10102210,
30011020,
1114,
11102210,
11102210,
3500,
000000000000000000000008000000000000200000000000,
11102210,
1010101011101110,
10202011,
20200440, //40
1000100020020000,
11102200,
2211,
11102000,
1000100020020000,
11102200,
2211,
500000000000000000000008000000000000200000000000,
1000102010010010,
12112200,
11102220,
12112040,
1000102010010010,
12112200,
11102220,
7084, //56
#GOGOSTART
1110100011101000,
12111010,
11221122,
200111100400,
22202220,
100000200000100000100000500000000008000000000000,
1110100011101000,
500000000000000008000000200000200000200000000000,
32121210,
12121210,
12121212,
12121440,
1020102010010010,
1020102010010010,
11111110,
1110100022204000, //72
#GOGOEND
100100202000,
100200202000,
2121,
101102200100,
100222,
222111,
10222210,
22221020,
1000100020020020,
11112200,
22101120,
12112010,
1000100020020020,
11112200,
22101120,
12117080,
22117080, //89
33,
3334,
#GOGOSTART
12121110,
1010111020404000,
3000400040040020,
1010101020220000,
12121110,
1110111020404000,
#GOGOEND
11111110,
1110101010102000,
1110101022202020,
100222200400,
200222,
200020002000200200200200,
1010100011101110,
7814, //105
11112120,
11112120,
22221212,
1000001110004000,
1110111011102000,
1110111011102000,
2220222022202220,
1111100070000000,
8220,
20200111,
1220,
40200111,
30202100,
20210440,
10221010,
21210030,
0, //122
#END

COURSE:Normal
LEVEL:7
BALLOON:4,4,4,4,4,4
SCOREINIT:2130
SCOREDIFF:0
#START
1110,
11101000,
1111,
11102000,
1110,
11101000,
1111,
2223, //8
#GOGOSTART
1000100020020000,
11102200,
1111,
11102040,
1000100020020000,
11102200,
1111,
11101040,
1000100020020000,
11102200,
1111,
11102040,
1000100020020000,
11102200,
1111,
22222040, //24
#GOGOEND
1110,
1110,
78,
78,
1110,
1110,
1012,
1114,
1110,
1110,
1500,
000000000000000000000008000000000000200000000000,
1111,
11111010,
1220,
20200440, //40
12,
12,
11,
1120,
12,
12,
11,
500000000000000000000000000000000008000000000000,
1000100010010000,
11101100,
1111,
11102040,
1000100010010000,
11101100,
11101110,
7084, //56
#GOGOSTART
11101110,
10111010,
11101110,
2220,
500000000000000000000000000000000008000000000000,
100000000000100000100000500000000008000000000000,
11101110,
500000000000000000000008000000000000200000000000,
30101110,
10111000,
10101110,
22202000,
11101001,
11101001,
11101110,
7084, //72
#GOGOEND
2220,
2220,
2222,
2220,
22,
21,
10222020,
20222000,
1110,
11101000,
10101110,
1120,
1110,
11101000,
10101110,
100000000000100000000000500000000008000000000000,
100000000000100000000000500000000008000000000000, //89
33,
3334,
#GOGOSTART
10101110,
11102040,
3000400040040000,
11102200,
10101110,
11112040,
#GOGOEND
11101110,
11111020,
11102220,
1220,
200222,
222200,
11101111,
7084, //105
11111020,
11111020,
22222010,
10011040,
11111120,
11111120,
22222220,
11107000,
8220,
20200111,
1220,
40200111,
3220,
20200440,
1211,
21210030,
0, //122
#END

COURSE:Easy
LEVEL:5
BALLOON:7,3,3,3
SCOREINIT:3590
SCOREDIFF:0
#START
11,
11,
1110,
1110,
11,
11,
1110,
2220, //8
#GOGOSTART
1110,
1110,
11,
1120,
1110,
1110,
11,
1130,
1110,
1110,
11,
1120,
1110,
1110,
11,
2240, //24
#GOGOEND
11,
1110,
7,
8,
11,
1110,
12,
22,
11,
1110,
5,
000000000000000000000008000000000000000000000000,
1110,
1111,
12,
2004, //40
1,
1,
1,
11,
1,
1,
11,
500000000000000000000000000008000000000000000000,
1110,
1110,
11,
1110,
1110,
1110,
11,
78, //56
#GOGOSTART
1111,
11,
1110,
2220,
500000000000000000000000000000000008000000000000,
500000000000000000000000000008000000000000000000,
11,
500000000000000000000008000000000000000000000000,
3110,
1110,
1110,
22,
1110,
1110,
1111,
78, //72
#GOGOEND
22,
22,
2220,
22,
22,
22,
1,
2220,
11,
11,
1110,
1110,
11,
1110,
11,
500000000000000000000000000008000000000000000000,
500000000000000000000000000008000000000000000000, //89
33,
3330,
#GOGOSTART
1110,
1120,
3340,
1120,
1110,
11104000,
#GOGOEND
1111,
11101000,
1122,
12,
22,
22,
1111,
500000000000000008000000000000000000400000000000, //105
11101000,
11101000,
2220,
11,
11101010,
11101010,
22202020,
27,
8,
2,
1,
4001,
3,
2,
11,
2003,
0, //122
#END
