//TJADB Project
TITLE:Mood Swing
TITLEJA:Mood Swing
SUBTITLE:--tn-shi
SUBTITLEJA:tn-shi
BPM:158
WAVE:Mood Swing.ogg
OFFSET:-0.171
DEMOSTART:91.307

COURSE:Edit
LEVEL:10
BALLOON:
SCOREINIT:1040
SCOREDIFF:0
#START
1011101110110111,
100000101010100000100100100000100100000100100100,
1011101110110111,
100000101010100000100100200200200100100100200100,
1020120120120120,
1020120120120122,
1020120120120120,
3344, //8
100000000000200200000220000000000000200200000220,
000000000000200200000220000000100000100000200000,
100000000000200200000220000000200000200000200200,
0021212122112211,
100000000000200200000220000000200200200200000220,
000000200000200200000220000000100000100100100100,
200000202020100100100200000100200200100200000000,
3000300040004022, //16
1011221211212211,
0122112122221121,
000000202020100100200200100100100100200200101010,
100000100020100020100020000000202020100100200200,
1011221211212211,
0122112122221121,
000000202020100100200200100100100100200200101010,
2111211211121212, //24
5,
000000000000000000000000000000000008000000000000,
1020120120122120,
3344, //28
100000000000200200000220000000000000200200000220,
000000000000200200000220000000100000100000200000,
100000000000200200000220000000100000200000200200,
0021212122112211,
100000000000200200000220000000000100200200000220,
000000000100200200000220000000100000200200200200,
100000202020100200000200100200200200100200000200,
100000000000100100200200100100200200101010202020, //36
100202101202101202101202,
001202101202101202101102,
000122102102101201201221,
200101102102000122102102,
100202101202101202101202,
001202101202101202101102,
000122102102101201201222,
100222100111200111200100, //44
400000000000000000000000000000000000200200000220,
000000200000200200000220000000200000200000200000,
2002002000100010,
0000001020020020,
200000000000000000000000000000200000200200000220,
000000200000200200000220000000200000200000200000,
20000001,
2222122212221222, //52
1010222102012211,
000200100000101010100200000200100200200100100100,
000200101010201020100200000200200100200200200100,
100000202102002202101202,
1012112202112221,
000100100100200200200100000100202020100100200100,
000200001010200100100100000100200200100200200200,
#MEASURE 5/4
111121112111
#BPMCHANGE 316
#SCROLL 0.5
20101010, //60
#MEASURE 8/4
#SCROLL 0.75
#GOGOSTART
3021220210212202,
10002010202000201000111020102020,
1021220210112021,
00001110201020201010101020102020,
1021220210212202,
10002010202000201000100011102020,
100000202020100200000200100200100100200200000200,
3344, //68
1022112211112122,
1122122212121121,
0022112212121122,
100100100000200000200000100100100000200000200000100100100000200000200000100010001000200020002000,
1022112211112122,
10101010202020201011201120112020,
000000000000200200200000100000100000200000100000100010001000100010001000200020002000200020002000,
10102020101020201110202011102020,
3344, //77
#GOGOEND
1120120120122120,
1120120120122122,
1120120120122120,
20102010202010100022000000000000,
0,
0, //83
#END

COURSE:Oni
LEVEL:7
BALLOON:5,14,8,15
SCOREINIT:1790
SCOREDIFF:0
#START
2022202020020020,
2022202020020020,
2022202020020020,
2022202070000080,
1020110020110220,
1020110020110220,
1020110020110220,
3344, //8
1010220200102202,
0010220200101020,
1010220200102022,
01223344,
1010220200102202,
0010220200101110,
1010220200101102,
1344, //16
1011101022202022,
0022202011102222,
0022202011101110,
100000200200200000200500000000000000008000000000,
1011101022202022,
0020222011102222,
0022202011101110,
500000000000000000000000000000000000000008000000, //24
1020110020110220,
1020110020110220,
1020110020110220,
3344, //28
1020110100201101,
0020110100101020,
1020110100102022,
01221122,
1020110100201101,
0020110100101110,
1020110100101102,
500000000000000000000008000000000000200020002000, //36
200200100200001100200200,
001100200200100100200200,
001100200200100200200200,
7008,
200200100200001100200200,
001100200200100100200200,
001100200200100200200200,
3344, //44
2000000000000002,
0000000200000000,
20000101,
00020000,
2000000000000002,
0000000200000000,
20000005,
000000000000000000000000000000000008000000000000, //52
1020110101020001,
0201100202000001,
0201000202202001,
0708,
1020110100100001,
0201100200200001,
0210000101101000,
#MEASURE 5/4
600000000000000000000000000000000008
#BPMCHANGE 316
#SCROLL 0.5
000000000000000000000000, //60
#MEASURE 8/4
#GOGOSTART
1020120100201201,
0020120100101020,
1020120100102022,
11221122,
1020120100201201,
0020120100101110,
1020120100102220,
3344, //68
1022102010221020,
1110102220201111,
0020102010221020,
1110111020222000,
1022102010221020,
1110102220102222,
0020102010222020,
500000000000000000000000000000000000000000000000000000000000000000000000000000000008000000000000,
70000008, //77
#GOGOEND
1020110020110220,
1020110020110220,
1020110020110220,
2020101104000000,
0,
0, //83
#END

COURSE:Hard
LEVEL:6
BALLOON:4,10,5,6,12
SCOREINIT:2330
SCOREDIFF:0
#START
2020200020020020,
2020200020020020,
2020200020020020,
22207008,
1010110020020020,
1010110020020020,
1010110020020020,
3344, //8
1000220200002202,
0000220200101020,
1000220200101022,
01123344,
1000220200002202,
0000220200101020,
1020100100202000,
3344, //16
1010100020202022,
0020200010102022,
0020200011101010,
100000100100100000000500000000000000008000000000,
1010100020202202,
0020200010102022,
0020200011101010,
500000000000000000000000000000000000000008000000, //24
1010110020020020,
1010110020020020,
1010110020020020,
3344, //28
1000110100001101,
0000110100101020,
1000110100101011,
02221122,
1000110100001101,
0000110100101020,
1020100100102000,
500000000000000000000008000000000000400000000000, //36
22120212,
02121122,
02121020,
7008,
22120212,
02121122,
02121020,
3344, //44
2000000000000002,
0000000200000000,
2,
00020000,
2000000000000002,
0000000200000000,
20000005,
000000000000000000000000000000000008000000000000, //52
1020100101000001,
0107000000800001,
0201000200200001,
0708,
1020100100100001,
0201000200200001,
0010000100101000,
#MEASURE 5/4
600000000000000000000000000000000008
#BPMCHANGE 316
#SCROLL 0.5
000000000000000000000000, //60
#MEASURE 8/4
#GOGOSTART
1000120100001201,
0000120100101020,
1000120100101011,
02221122,
1000120100001201,
0000120100101020,
1020100100102000,
3344, //68
10121120,
1110101020202002,
02121120,
1110101020202000,
10121120,
1110101020202002,
02121120,
500000000000000000000000000000000000000000000000000000000000000000000000000000000008000000000000,
70000008, //77
#GOGOEND
1010110020020020,
1010110020020020,
1010110020020020,
1010101104000000,
0,
0, //83
#END

COURSE:Normal
LEVEL:5
BALLOON:7,5,8,5
SCOREINIT:3540
SCOREDIFF:0
#START
2220,
2220,
2220,
2240,
0010010020020000,
0010010020020000,
0010010020020000,
3344, //8
1000200200002002,
0000200200001000,
1000200200002002,
00103330,
1000200200002002,
0000200200001000,
1000200200001000,
3344, //16
1010100020202002,
0000200010101001,
0000200010101000,
100000100000100000000500000000000000008000000000,
1010100020202002,
0000200010101002,
0000200010101000,
500000000000000000000000000000000000000008000000, //24
0010010020020000,
0010010020020000,
0010010020020000,
3344, //28
1000100100001001,
0000100100002000,
1000100100001001,
00201110,
1000100100001001,
0000100100002000,
1000100100002000,
500000000000000000000008000000000000400000000000, //36
10220222,
02201022,
02201020,
7008,
10220222,
02201022,
02201020,
3344, //44
2000000000000002,
0,
2,
00020000,
2000000000000002,
0,
20000005,
000000000000000000000000000000000008000000000000, //52
1000200100000001,
0001000100000001,
0001000200000007,
08,
1000200100000001,
0001000200000001,
0010000100000000,
#MEASURE 5/4
600000000000000000000000000000000008
#BPMCHANGE 316
#SCROLL 0.5
000000000000000000000000, //60
#MEASURE 8/4
#GOGOSTART
1000200100002001,
0000200100002000,
1000200100002001,
00201110,
1000200100002001,
0000200100002000,
1000100100002000,
3344, //68
10111020,
1010100010100002,
00101110,
11102020,
10111020,
1010100010100002,
00101110,
500000000000000000000000000000000000000000000000000000000000000000000000000000000008000000000000,
70000008, //77
#GOGOEND
0010010020020000,
0010010020020000,
0010010020020000,
7000000008000000,
0,
0, //83
#END

COURSE:Easy
LEVEL:3
BALLOON:4,4,6,4
SCOREINIT:5860
SCOREDIFF:0
#START
22,
2,
22,
24,
01002000,
01002000,
01002000,
3330, //8
0202,
0202,
0202,
0244,
0202,
0202,
0200,
3330, //16
1000100010000002,
0000200020000001,
0110,
500000000000000000000000000008000000000000000000,
1000100010000002,
0000200020000001,
0110,
500000000000000000000000000008000000000000000000, //24
01002000,
01002000,
01002000,
3330, //28
1101,
0101,
1101,
0111,
1101,
0101,
1101,
1104, //36
2202,
0222,
0220,
7008,
2202,
0222,
0220,
3330, //44
2000000000000002,
0,
2,
0,
2000000000000002,
0,
20000005,
000000000000000000000000000008000000000000000000, //52
1000000100000001,
0000000100000001,
0000000200000007,
08,
1000000100000001,
0000000200000001,
0000000100000000,
#MEASURE 5/4
600000000000000000000000000008000000
#BPMCHANGE 316
#SCROLL 0.5
000000000000000000000000, //60
#MEASURE 8/4
#GOGOSTART
1102,
0101,
1102,
0111,
1102,
0101,
1101,
3330, //68
1110,
1000100010000002,
0111,
1110,
1110,
1000100010000002,
0111,
500000000000000000000000000000000000000000000000000000000000000000000000000000000008000000000000,
70000008, //77
#GOGOEND
01002000,
01002000,
01002000,
7000000008000000,
0,
0, //83
#END
