//TJADB Project
TITLE:Yuusha
TITLEJA:勇者
SUBTITLE:--Soso no Frieren
SUBTITLEJA:「葬送のフリーレン」より
BPM:208
WAVE:Yuusha.ogg
OFFSET:-1.193
DEMOSTART:58.861 //Shinuchi:
11210/6900/4230/2640/1490

COURSE:Edit
LEVEL:9
BALLOON:18
SCOREINIT:510,1520
SCOREDIFF:125
#START
1020202220100010,
02212100,
12212101,
02212100,
1020202220100010,
02212100,
12212101,
0020201040111000, //8
1020101022100010,
0022201020201011,
12112101,
0022102010102011,
1020101022100010,
0022201020201011,
12112101,
0022102010102000,
1222122210002020, //17
#GOGOSTART
1000202011102020,
1022102010002020,
1000202011102020,
1022201110002222,
1000202011102020,
1022102010002020,
1000202011102020,
1022201110002222, //25
#GOGOEND
10012010,
222200200100,
10012010,
222200111211,
10012010,
222200200100,
10012010,
11014011, //33
1022101020221020,
1022101022201020,
1022101020221020,
1022201022201222,
1022101020221020,
1022101022201020,
1022201020221020,
1022201022201000, //41
11011011,
200020002000200000000000200000000000100100100000,
11011011,
200020002000200000000000200000100100100100100000,
1010201210102010,
1010201210102010,
122122112211,
2211221170000000, //49
0000,
#BARLINEOFF
#SCROLL 2.5
080000000000000000000000400000000000000000
#SCROLL 1
#GOGOSTART
300000, //51
#BARLINEON
0020102210221022,
1111111111111010,
0010201110112010,
0011201110112011,
1110201121102012,
121020122210
#GOGOEND
2000,
#GOGOSTART
1022102210005000,
000008000000300000000000200200200200200000300000, //59
0010201110112010,
0011201110112010,
0010201110112010,
0011201110112011,
1110201121102012,
1210201222102000,
1022102210002010,
#GOGOEND
12010210, //67
#GOGOSTART
3020111110201111,
1020111111221122,
1020111110201111,
1020111111221212,
1020111110201111,
1020111111221212,
1020111110201111,
1020111111201210, //75
#GOGOEND
0020001110200020,
01400000,
0, //78
#END

COURSE:Oni
LEVEL:7
BALLOON:8,14
SCOREINIT:810,2750
SCOREDIFF:225
#START
12,
0120,
12,
0120,
12,
0120,
12,
0140, //8
10112101,
02102011,
10112101,
02102000,
10112101,
02102011,
10112101,
02102000,
700000000000000000000000000000080000000000000000, //17
#GOGOSTART
1000200011102000,
10211020,
1000202011102000,
10211020,
1000200011102000,
10211020,
1000202011102000,
10211020, //25
#GOGOEND
12,
0021,
12,
0021,
12,
0021,
1,
14, //33
12112012,
1011101020102000,
12112012,
1011102020101000,
12112012,
1011101020102000,
12112012,
1011102020101000, //41
22,
0,
22,
0,
10201120,
10201120,
12,
700000000000000000000000000000000000000000000008, //49
0,
#BARLINEOFF
#SCROLL 2.5
0000400
#GOGOSTART
#SCROLL 1
3, //51
#BARLINEON
0020101110102010,
0020101110102010,
02211221,
02102020,
1110200011102000,
111020001110
#GOGOEND
2000,
#GOGOSTART
5,
000000000008000000000000200200200000200000300000, //59
0020101110102010,
0020101110102010,
02211221,
02102020,
1110200011102000,
1110200011102000,
1011,
#GOGOEND
2, //67
#GOGOSTART
3011101010001110,
1000111010201000,
3011101010001110,
1000111010102020,
3011101010001110,
1000111010201000,
3011101010001110,
1000111010102020, //75
#GOGOEND
0000001110100030,
0300,
0, //78
#END

COURSE:Hard
LEVEL:5
BALLOON:6,10
SCOREINIT:960,4600
SCOREDIFF:310
#START
12,
02,
12,
02,
12,
02,
12,
04, //8
10102001,
0120,
10102001,
0120,
10102001,
0120,
10102001,
0120,
700000000000000000000000000000080000000000000000, //17
#GOGOSTART
11,
10111020,
11,
10121020,
11,
10111020,
11,
10121020, //25
#GOGOEND
12,
02,
12,
02,
12,
02,
1,
14, //33
1120,
10112010,
1120,
10222010,
1120,
10112010,
1120,
10222010, //41
22,
0,
22,
0,
1212,
1111,
12,
700000000000000000000000000000000000000000000008, //49
0,
0000000
#GOGOSTART
3, //51
03000003,
03000001,
02201001,
02201010,
2211,
221
#GOGOEND
1,
#GOGOSTART
5,
000000000008000000000000000000000000000000300000, //59
03000003,
03000001,
02201001,
02201010,
2211,
2211,
11,
#GOGOEND
2, //67
#GOGOSTART
30111011,
10111210,
30111011,
10111120,
30111011,
10111210,
30111011,
10111120, //75
#GOGOEND
00000003,
0300,
0, //78
#END

COURSE:Normal
LEVEL:3
BALLOON:4,7
SCOREINIT:1040,7990
SCOREDIFF:495
#START
1,
0,
1,
0,
1,
0,
1,
02, //8
11,
02,
11,
02,
11,
02,
11,
02,
700000000000000000000000000000080000000000000000, //17
#GOGOSTART
11,
1,
11,
22,
11,
1,
11,
22, //25
#GOGOEND
1,
02,
1,
02,
1,
02,
1,
12, //33
11,
1011,
11,
1011,
11,
1011,
11,
1, //41
2,
0,
2,
0,
11,
1111,
12,
700000000000000000000000000000000000000000000008, //49
0,
0000000
#GOGOSTART
3, //51
03000003,
03000003,
03000003,
03000000,
1111,
111
#GOGOEND
1,
#GOGOSTART
5,
000000000008000000000000000000000000000000300000, //59
03000003,
03000003,
03000003,
03000000,
1111,
1111,
11,
#GOGOEND
2, //67
#GOGOSTART
1011,
11,
1011,
11,
1011,
21,
1011,
21, //75
#GOGOEND
00000003,
0300,
0, //78
#END

COURSE:Easy
LEVEL:2
BALLOON:3,5
SCOREINIT:1100,12800
SCOREDIFF:835
#START
1,
0,
1,
0,
1,
0,
1,
02, //8
1,
02,
1,
02,
1,
02,
1,
02,
700000000000000000000000000000080000000000000000, //17
#GOGOSTART
1,
1,
1,
11,
1,
1,
1,
11, //25
#GOGOEND
1,
0,
1,
0,
1,
0,
1,
1, //33
11,
1,
11,
1,
11,
1,
11,
1, //41
2,
0,
2,
0,
1,
11,
1,
700000000000000000000000000000000000000000000008, //49
0,
0000000
#GOGOSTART
3, //51
00000003,
00000003,
00000003,
0,
11,
100010
#GOGOEND
00,
#GOGOSTART
5,
000000000008000000000000000000000000000000300000, //59
00000003,
00000003,
00000003,
0,
11,
11,
1,
#GOGOEND
2, //67
#GOGOSTART
11,
1,
11,
1,
11,
1,
11,
1, //75
#GOGOEND
00000003,
0300,
0, //78
#END
