//TJADB Project
TITLE:Cotton Candy Ei-Ei-Oh!
TITLEJA:コットンキャンディえいえいおー!
SUBTITLE:--Ruby Kurosawa (CV: Ai Furihata) from Aquors/Love Live! Sunshine!!
SUBTITLEJA:黒澤ルビィ(CV:降幡 愛) from Aqours 「ラブライブ!サンシャイン!!」より
BPM:168
WAVE:Cotton Candy Ei-Ei-Oh.ogg
OFFSET:-2.021
DEMOSTART:67.649

COURSE:Oni
LEVEL:8
BALLOON:3,5,5
SCOREINIT:1430
SCOREDIFF:0
#START
1022022010001000,
1022022010002222,
10211211,
1112111020002222,
1022022010001000,
1022022010002222,
10211211,
#BPMCHANGE 169
3000000022102211, //8
#BPMCHANGE 168
1020102010222010,
1020102010121010,
1020102010222010,
1020102010121010,
1020102010222010,
1020102010121010,
1022102012221020,
1022102012121222, //16
1011101110221110,
1011101110221110,
1011101110221110,
1010202010202222,
1111,
1000101010222010,
0010101010222020,
3000101010222010, //24
0020102010212010,
0020102010212120,
#SCROLL 1.45
500000000000000000000000000000000000000008000000,
#SCROLL 1
1020202012221000,
30111011,
1000101010222010,
0010101010222020,
3000101010201111, //32
1020102010222010,
1020102010102220,
500000000000000000000000000000000000000008000000,
12221222,
1022102010221020,
11010440,
1022102010221020,
11010440,
1010001000222020,
1010101000222000, //42
#BARLINEOFF
#SCROLL 0.83
3,
#SCROLL 0.66
4,
#SCROLL 0.5
600000000000000000000000000000000008000000000000,
#BARLINEON
#SCROLL 1
2000200012221000, //46
#GOGOSTART
1011101020112020,
3000300040111010,
0020102011221020,
1010100020111020,
0020121212100070,
0080222010200030,
03403341,
0020100040112222, //54
1011101020112020,
3000300040111010,
0022102011111020,
0011201120112011,
7000080011101020,
1110102011101020,
1110201110201120,
500000000000000008000000700000000000000800000000, //62
#GOGOEND
100000200200000200200000100020002000100020002000,
100000200200000200200000100020002000100020002000,
10211211,
100100100200100100100000100020002000100020002000,
100000200200000200200000100020002000100020002000,
100000200200000200200000100020002000100020002000,
10211211,
3000000022102211, //70
#GOGOSTART
1011202010112020,
1011202011102020,
1011202010112020,
1011202011112020,
1011202010112020,
1011202011102020,
1011202010112020,
1111222211112020, //78
#GOGOEND
3011101110221110,
1011101110221110,
1011101110221110,
1010202010202222,
10000300,
0,
0, //85
#END

COURSE:Hard
LEVEL:6
BALLOON:9,10,3,3,3,15
SCOREINIT:2200
SCOREDIFF:0
#START
1112,
1112,
10211210,
1020111020002000,
1112,
1112,
10211210,
#BPMCHANGE 169
3000000011102000, //8
#BPMCHANGE 168
12121210,
12121110,
12121210,
1020102010111000,
12121210,
12121110,
12121210,
1020102010222020, //16
1000100010111010,
1000100010111010,
1000100010111010,
7008,
3111,
10110201,
01111020,
30110201, //24
02121201,
02121212,
#SCROLL 1.45
500000000000000000000000000000000000000008000000,
#SCROLL 1
20202220,
30111011,
10110201,
01111220,
30110201, //32
01112201,
01121122,
500000000000000000000000000000000000000008000000,
12201220,
10101210,
11010440,
10101210,
11010440,
11010220,
11110020, //42
#BARLINEOFF
#SCROLL 0.83
3,
#SCROLL 0.66
4,
#SCROLL 0.5
9009,
#BARLINEON
#SCROLL 1
8, //46
#GOGOSTART
10112020,
30304011,
0020102011101020,
11102022,
02111107,
08221203,
03403341,
0020100040002220, //54
10112020,
30304011,
0020102011101020,
01212121,
7000080011101000,
1110100011101000,
11211212,
500000000000000008000000700000000000000800000000, //62
#GOGOEND
100100222200,
100100222200,
10211210,
100200100000202020200000,
100100222200,
100100222200,
10211210,
3000000011102000, //70
#GOGOSTART
11221122,
11221110,
11221122,
1010202010111000,
11221122,
11221110,
11221122,
1010202022202000, //78
#GOGOEND
3000100010111010,
1000100010111010,
1000100010111010,
7,
0800000000300000,
0,
0, //85
#END

COURSE:Normal
LEVEL:5
BALLOON:7,8,5,9
SCOREINIT:3960
SCOREDIFF:0
#START
1110,
1110,
11,
1110,
1110,
1110,
11,
#BPMCHANGE 169
3, //8
#BPMCHANGE 168
1212,
1210,
1212,
1210,
1212,
1210,
1212,
10202220, //16
500000000000000000000000000000000008000000000000,
500000000000000000000000000000000008000000000000,
500000000000000000000000000000000008000000000000,
7008,
3111,
10000001,
01101020,
30000001, //24
02121201,
02121020,
#SCROLL 1.45
500000000000000000000000000000000000000008000000,
#SCROLL 1
02,
30111011,
10000001,
01111020,
30000001, //32
01102201,
01102020,
500000000000000000000000000000000000000008000000,
02, //36
1111,
11010040,
1111,
11010040,
11010010,
11010000, //42
#BARLINEOFF
#SCROLL 0.83
3,
#SCROLL 0.66
4,
#SCROLL 0.5
9009,
#BARLINEON
#SCROLL 1
8, //46
#GOGOSTART
10111020,
30304001,
01101010,
11102002,
00111102,
00222203,
0434,
7000000008000000, //54
10111020,
30304001,
00101112,
0222,
2011,
1111,
10220220,
500000000000000000000000000000000008000000000000, //62
#GOGOEND
1112,
1112,
10111010,
1122,
1112,
1112,
10111010,
3, //70
#GOGOSTART
1212,
10201110,
1212,
10202220,
1212,
10201110,
1212,
1120, //78
#GOGOEND
500000000000000000000000000000000008000000000000,
500000000000000000000000000000000008000000000000,
500000000000000000000000000000000008000000000000,
7,
0800000000300000,
0,
0, //85
#END

COURSE:Easy
LEVEL:3
BALLOON:4,6,4,7
SCOREINIT:7240
SCOREDIFF:0
#START
11,
11,
1,
1,
11,
11,
1,
#BPMCHANGE 169
3, //8
#BPMCHANGE 168
11,
1,
11,
1,
11,
1,
11,
12, //16
500000000000000000000000000000000008000000000000,
500000000000000000000000000000000008000000000000,
500000000000000000000000000000000008000000000000,
70000800,
3110,
10000001,
0110,
30000001,
00201001,
0210,
#SCROLL 1.45
500000000000000000000000000000000000000008000000,
#SCROLL 1
0, //28
3110,
10000001,
0110,
30000001,
00101001,
0110,
500000000000000000000000000000000000000008000000,
0, //36
1110,
1,
1110,
1,
1,
1, //42
#BARLINEOFF
#SCROLL 0.83
3,
#SCROLL 0.66
4,
#SCROLL 0.5
9009,
#BARLINEON
#SCROLL 1
8, //46
#GOGOSTART
1110,
30304001,
0110,
10101001,
00101002,
00202003,
03,
7000000008000000, //54
1110,
30304001,
00101002,
0222,
2011,
1011,
10010020,
500000000000000000000000000000000008000000000000, //62
#GOGOEND
11,
11,
12,
1,
11,
11,
1,
3, //70
#GOGOSTART
11,
12,
11,
12,
11,
12,
11,
22, //78
#GOGOEND
500000000000000000000000000000000008000000000000,
500000000000000000000000000000000008000000000000,
500000000000000000000000000000000008000000000000,
7,
0800000000300000,
0,
0, //85
#END
