//TJADB Project
TITLE:CHEMY×STORY
TITLEJA:CHEMY×STORY
SUBTITLE:--Kamen Rider Gatchard
SUBTITLEJA:「仮面ライダーガッチャード」より
BPM:190
WAVE:CHEMY STORY.ogg
OFFSET:-1.022
DEMOSTART:50.722 //shinuchi:
20560/10340/5060/2930

COURSE:Oni
LEVEL:4
BALLOON:25,25
SCOREINIT:800,3040
SCOREDIFF:220
#START
#SCROLL 0.75
11021102,
11011220,
11021102,
11011030,
10121020,
10102120,
10111020,
10112121, //8
10121020,
10102120,
10111020,
10112121,
2222,
22202220,
2222,
22101020, //16
10121020,
10221020,
10121020,
1212,
10121020,
10221020,
10121020,
20121112, //24
10212112,
10212112,
10102022,
10212112,
10201012,
10112020,
10211020,
20111221, //32
10101221,
10111021,
10101221,
10201221,
10111221,
10201221,
20122120,
00010120, //40
#GOGOSTART
30112112,
11212021,
10112122,
11202020,
11022011,
21102020,
7,
000000000000000000000000000000000000000008000000, //48
30112112,
11212021,
10112121,
1122,
11022011,
21102020,
7,
000000000000000000000000000000000000000008000000, //56
30111022,
10112022,
500000000000000000000000000000000000000008000000,
11221120,
10111022,
10112022,
6,
000000000000000000000000000000000008000000000000, //64
#GOGOEND
3,
0, //66
#END

COURSE:Hard
LEVEL:3
BALLOON:20,20
SCOREINIT:1050,5280
SCOREDIFF:348
#START
#SCROLL 0.75
11,
1,
11,
1,
1112,
12,
1112,
12, //8
1112,
12,
1112,
11,
22,
2,
22,
2111, //16
1012,
1110,
11,
1012,
1012,
1110,
10011000,
20101110, //24
10001110,
10001110,
1120,
10001110,
1011,
1110,
10011000,
21, //32
10101011,
12,
10101011,
12,
10101011,
1011,
2022,
00010110, //40
#GOGOSTART
30111020,
11102000,
10111020,
1120,
11011011,
1120,
7,
000000000000000000000000000000000000000008000000, //48
30111020,
11102000,
10111020,
1120,
11011011,
1120,
7,
000000000000000000000000000000000000000008000000, //56
3110,
1120,
500000000000000000000000000000000000000008000000,
11011100,
1110,
1120,
6,
000000000000000000000000000000000008000000000000, //64
#GOGOEND
3,
0, //66
#END

COURSE:Normal
LEVEL:1
BALLOON:14,14
SCOREINIT:1310,11130
SCOREDIFF:825
#START
#SCROLL 0.75
1,
1,
1,
1,
11,
12,
6,
000000000000000000000008000000000000000000000000, //8
11,
12,
6,
000000000000000000000000000000000008000000000000,
2,
2,
2,
2, //16
11,
1,
11,
1,
11,
1,
500000000000000000000000000000000000000008000000,
0, //24
11,
11,
1,
2,
11,
11,
500000000000000000000000000000000000000008000000,
0, //32
1110,
1,
1110,
2,
1110,
2,
22,
0, //40
#GOGOSTART
3110,
12,
1110,
12,
11,
22,
7,
000000000000000000000000000000000000000008000000, //48
3110,
12,
1110,
12,
11,
22,
7,
000000000000000000000000000000000000000008000000, //56
31,
12,
1,
12,
11,
12,
6,
000000000000000000000000000000000008000000000000, //64
#GOGOEND
3,
0, //66
#END

COURSE:Easy
LEVEL:1
BALLOON:7,7
SCOREINIT:1930,23100
SCOREDIFF:2605
#START
#SCROLL 0.75
1,
0,
1,
0,
1,
1,
6,
000000000000000000000008000000000000000000000000, //8
1,
1,
6,
000000000000000000000000000008000000000000000000,
2,
0,
2,
0, //16
1,
0,
1,
0,
1,
0,
500000000000000000000000000000000000000008000000,
0, //24
1,
1,
1,
0,
1,
1,
500000000000000000000000000000000000000008000000,
0, //32
1,
0,
1,
0,
1,
0,
2,
0, //40
#GOGOSTART
3,
11,
1,
11,
1,
2,
7,
000000000000000000000000000008000000000000000000, //48
3,
11,
1,
11,
1,
2,
7,
000000000000000000000000000008000000000000000000, //56
3,
1,
1,
1,
1,
1,
6,
000000000000000000000000000008000000000000000000, //64
#GOGOEND
3,
0, //66
#END
