//TJADB Project
TITLE:Megamina Sekai Ⅰ
TITLEJA:女神な世界 Ⅰ
SUBTITLE:--Hisui feat. Saori Terai
SUBTITLEJA:翡翠&祇羽 feat. 寺井沙織
BPM:168
WAVE:Megamina Sekai I.ogg
OFFSET:-4.279
DEMOSTART:23.560 //Shinuchi:
5310/3080/1920/1520

COURSE:Oni
LEVEL:9
BALLOON:6,6,6,6,6,9
SCOREINIT:540,1580
SCOREDIFF:133
#START
#MEASURE 3/4
200100111,
200100111,
201011,
#MEASURE 2/4
200111, //4
#MEASURE 3/4
200100111,
200100111,
201011,
#MEASURE 2/4
78,
#MEASURE 3/4
200100111,
200100111,
201011,
#MEASURE 2/4
78, //12
#MEASURE 3/4
302022,
112022,
102022,
#MEASURE 2/4
78,
#MEASURE 3/4
302022,
112022,
102022,
#MEASURE 2/4
78, //20
#MEASURE 3/4
122100222,
100100222,
102010100000200200,
#MEASURE 2/4
100222,
#MEASURE 3/4
122100222,
100100222,
102010100000200200,
#MEASURE 2/4
12, //28
#MEASURE 3/4
100011200010,
#MEASURE 5/8
0012100010,
#MEASURE 3/4
100011200010,
001210001000,
100011200010,
#MEASURE 5/8
0012100010,
#MEASURE 3/4
100011200010,
200002202022, //36
100022102010,
100022111000,
100022102210,
101000122010,
100022102010,
100022112000,
100022102210,
100010102210, //44
1,
2,
11,
2,
100222101,
202100100,
100000201211,
221122112, //52
100000000000100100100100100020001000,
202010221,
102010100100100010001000100000000000,
221221,
101201,
200200100222101010,
101101101,
221211211, //60
#SCROLL 2
#GOGOSTART
121120112120,
#MEASURE 4/4
#SCROLL 1
221202101202,
#MEASURE 3/4
#SCROLL 2
112120111120,
#MEASURE 4/4
#SCROLL 1
112101202101, //64
#GOGOEND
#MEASURE 3/4
100011200010,
#MEASURE 5/8
0012101010,
#MEASURE 3/4
100011200010,
001210101000,
100011200010,
#MEASURE 5/8
0012101010,
#MEASURE 3/4
100011200010,
111020111010, //72
100011,
200022,
100011,
211221,
122,
221,
122,
#SCROLL 0.6
221122202020, //80
#GOGOSTART
201120102210,
221020112010,
201220102110,
#MEASURE 2/4
200200100200200020002000,
#MEASURE 3/4
201120102210,
221020112010,
201220102110,
#MEASURE 2/4
78, //88
#GOGOEND
#MEASURE 3/4
#SCROLL 1
100012100010,
212,
100022100010,
212,
100012100010,
212,
78,
201222, //96
100012100010,
212,
100022102010,
200010202022,
100010122010,
200020122010,
100010221000,
201120202000, //104
#SCROLL 2
#GOGOSTART
121120112120,
#MEASURE 4/4
#SCROLL 1
221202101202,
#MEASURE 3/4
#SCROLL 2
112120111120,
#MEASURE 4/4
#SCROLL 1
112101202101, //108
#MEASURE 3/4
#SCROLL 2
111220111120,
#MEASURE 4/4
#SCROLL 1
121202201101,
#MEASURE 3/4
#SCROLL 2
111220121110,
#MEASURE 4/4
#SCROLL 1
212101102202, //112
#MEASURE 3/4
#SCROLL 1.5
122112,
#SCROLL 1.2
112112122,
#SCROLL 0.9
2121,
#MEASURE 5/8
#SCROLL 0.7
2001001112,
#MEASURE 4/4
#SCROLL 3
1, //117
#GOGOEND
#BARLINEOFF
0,
0, //119
#END

COURSE:Hard
LEVEL:7
BALLOON:4,6
SCOREINIT:510,1960
SCOREDIFF:133
#START
#MEASURE 3/4
200100222,
200100222,
201022,
#MEASURE 2/4
100222, //4
#MEASURE 3/4
200100222,
200100222,
201022,
#MEASURE 2/4
100222,
#MEASURE 3/4
200100222,
200100222,
201022,
#MEASURE 2/4
1, //12
#MEASURE 3/4
302022,
112022,
102022,
#MEASURE 2/4
1120,
#MEASURE 3/4
302022,
112022,
102022,
#MEASURE 2/4
1120, //20
#MEASURE 3/4
100100200000202020,
200100222,
111022,
#MEASURE 2/4
100222,
#MEASURE 3/4
100100200000202020,
200100222,
111022,
#MEASURE 2/4
1120, //28
#MEASURE 3/4
101201,
#MEASURE 5/8
01101,
#MEASURE 3/4
101201,
011010,
101201,
#MEASURE 5/8
01101,
#MEASURE 3/4
101201,
200222, //36
102121,
102111,
102121,
100212,
102121,
102121,
102201,
111, //44
3,
2,
11,
2,
100202202,
201100100,
100210,
100222200, //52
000200111,
102010200,
500000000000000000000008000000000000,
011220,
301202,
102100,
111,
220220220, //60
#GOGOSTART
111020101020,
#MEASURE 4/4
111100200200,
#MEASURE 3/4
111020101020,
#MEASURE 4/4
111100200200, //64
#GOGOEND
#MEASURE 3/4
101221,
#MEASURE 5/8
21121,
#MEASURE 3/4
101121,
221211,
101221,
#MEASURE 5/8
21121,
#MEASURE 3/4
101121,
221211, //72
100022,
200011,
100022,
2,
222,
221,
1,
500000000000000000000008000000000000, //80
#GOGOSTART
202220202020,
101010111010,
202220202020,
#MEASURE 2/4
100100101010,
#MEASURE 3/4
202220202020,
101010111010,
202220202020,
#MEASURE 2/4
78, //88
#GOGOEND
#MEASURE 3/4
102210,
222,
100210,
102212,
102210,
101120,
78,
202211, //96
102210,
112,
102121,
201222,
101101,
102221,
102212,
121211, //104
#GOGOSTART
111020101020,
#MEASURE 4/4
111100200200,
#MEASURE 3/4
111020101020,
#MEASURE 4/4
111100200200,
#MEASURE 3/4
111010202020,
#MEASURE 4/4
111100200200,
#MEASURE 3/4
111010202020,
#MEASURE 4/4
111100200200, //112
#MEASURE 3/4
122112,
111111111,
2121,
#MEASURE 5/8
2001001110,
#MEASURE 4/4
3, //117
#GOGOEND
#BARLINEOFF
0,
0, //119
#END

COURSE:Normal
LEVEL:6
BALLOON:2,2,2,2,4,4,3,3,3,3
SCOREINIT:670,3540
SCOREDIFF:168
#START
#MEASURE 3/4
210,
210,
120,
#MEASURE 2/4
1, //4
#MEASURE 3/4
210,
210,
120,
#MEASURE 2/4
78,
#MEASURE 3/4
210,
210,
120,
#MEASURE 2/4
78,
#MEASURE 3/4
322,
111020,
122,
#MEASURE 2/4
78,
#MEASURE 3/4
322,
111020,
122,
#MEASURE 2/4
78, //20
#MEASURE 3/4
211,
211,
122,
#MEASURE 2/4
1110,
#MEASURE 3/4
211,
211,
122,
#MEASURE 2/4
1110,
#MEASURE 3/4
500000000000000000000008000000000000,
#MEASURE 5/8
01010,
#MEASURE 3/4
500000000000000000000008000000000000,
011,
500000000000000000000008000000000000,
#MEASURE 5/8
01010,
#MEASURE 3/4
500000000000000000000008000000000000,
12, //36
434,
001110,
112,
100110,
112,
100110,
101102,
211,
600000000000000000000000000000000008,
0,
11,
2,
11,
2,
11,
212, //52
500000000000000000000008000000000000,
101010100,
500000000000000000000008000000000000,
011020,
32,
202,
111,
222, //60
#GOGOSTART
311100,
#MEASURE 4/4
1222,
#MEASURE 3/4
311100,
#MEASURE 4/4
1444, //64
#GOGOEND
#MEASURE 3/4
600000000000000000000008000000000000,
#MEASURE 5/8
01110,
#MEASURE 3/4
500000000000000000000008000000000000,
001110,
500000000000000000000008000000000000,
#MEASURE 5/8
01110,
#MEASURE 3/4
500000000000000000000008000000000000,
202201, //72
100022,
200011,
100022,
2,
422,
222,
222,
202220, //80
#GOGOSTART
102220,
222020,
102220,
#MEASURE 2/4
2220,
#MEASURE 3/4
102220,
222020,
102220,
#MEASURE 2/4
1111, //88
#GOGOEND
#MEASURE 3/4
301100,
222,
11,
100011,
11,
222,
708,
708,
301100,
222,
11,
200110,
600000000000000000000008000000000000,
202,
600000000000000000000008000000000000,
202220, //104
#GOGOSTART
311700,
#MEASURE 4/4
8222,
#MEASURE 3/4
311700,
#MEASURE 4/4
8111,
#MEASURE 3/4
311700,
#MEASURE 4/4
8211,
#MEASURE 3/4
311700,
#MEASURE 4/4
8122, //112
#MEASURE 3/4
302220,
401110,
2121,
#MEASURE 5/8
2010200,
#MEASURE 4/4
3,
#GOGOEND
#BARLINEOFF
0,
0, //119
#END

COURSE:Easy
LEVEL:4
BALLOON:
SCOREINIT:610,6410
SCOREDIFF:216
#START
#MEASURE 3/4
2,
2,
2,
#MEASURE 2/4
1, //4
#MEASURE 3/4
2,
2,
2,
#MEASURE 2/4
1,
#MEASURE 3/4
2,
2,
2,
#MEASURE 2/4
1,
#MEASURE 3/4
3,
110,
1,
#MEASURE 2/4
1,
#MEASURE 3/4
3,
110,
1,
#MEASURE 2/4
1, //20
#MEASURE 3/4
110,
110,
110,
#MEASURE 2/4
1,
#MEASURE 3/4
110,
110,
110,
#MEASURE 2/4
2,
#MEASURE 3/4
500000000000000000000008000000000000,
#MEASURE 5/8
00100,
#MEASURE 3/4
500000000000000000000008000000000000,
011,
500000000000000000000008000000000000,
#MEASURE 5/8
00100,
#MEASURE 3/4
500000000000000000000008000000000000,
11, //36
220,
011,
110,
11,
220,
011,
11,
110,
600000000000000000000000000000000008,
0,
11,
2,
1,
2,
11,
2, //52
3,
2,
500000000000000008000000000000000000,
2,
3,
2,
500000000000000008000000000000000000,
220, //60
#GOGOSTART
33,
#MEASURE 4/4
0440,
#MEASURE 3/4
33,
#MEASURE 4/4
0440, //64
#GOGOEND
#MEASURE 3/4
600000000000000000000008000000000000,
#MEASURE 5/8
00100,
#MEASURE 3/4
500000000000000000000008000000000000,
011,
500000000000000000000008000000000000,
#MEASURE 5/8
00100,
#MEASURE 3/4
500000000000000000000008000000000000,
22,
101,
102,
202,
2,
4,
2,
2,
220, //80
#GOGOSTART
110,
110,
110,
#MEASURE 2/4
2,
#MEASURE 3/4
110,
110,
110,
#MEASURE 2/4
2, //88
#GOGOEND
#MEASURE 3/4
31,
2,
11,
2,
11,
2,
5,
000000000008000000000000000000000000,
31,
2,
11,
2,
600000000000000000000008000000000000,
202,
600000000000000000000008000000000000,
022, //104
#GOGOSTART
33,
#MEASURE 4/4
0440,
#MEASURE 3/4
33,
#MEASURE 4/4
0111,
#MEASURE 3/4
33,
#MEASURE 4/4
0440,
#MEASURE 3/4
33,
#MEASURE 4/4
0220, //112
#MEASURE 3/4
3,
3,
22,
#MEASURE 5/8
2,
#MEASURE 4/4
3,
#GOGOEND
#BARLINEOFF
0,
0, //119
#END
