//TJADB Project
TITLE:Rocket Mode
TITLEJA:ロケットモード
SUBTITLE:--Atarime feat. Yoshino Chikaraishi
SUBTITLEJA:アタリメ feat. 力石好乃
BPM:190
WAVE:Rocket Mode.ogg
OFFSET:-1.484
DEMOSTART:41.672

COURSE:Oni
LEVEL:8
BALLOON:5,5,5,15,15
SCOREINIT:1420
SCOREDIFF:0
#START
0010212121212120,
02020708,
0010212121212120,
0020002000222070,
0080200000222070,
0080200022222030,
0000300022222030,
0000000000112110, //8
1000201010022010,
0020101000102220,
1000201010022010,
0020101000102220,
1010202010222010,
0010201000102220,
1010202010222010,
0010201000102220, //16
1010201010022010,
1011201010222010,
1010201010022011,
1011201012102010,
1010200010222010,
1011201010222010,
1010200012102011,
1011201012102000, //24
102020102020100200200100,
02020102,
201010202010100200200100,
01022110,
102020102020100200200100,
02020102,
1010202010201022,
20111022102000
#GOGOSTART
30, //32
0010201111102010,
0010201022112010,
0010200011102010,
0011102220112050,
000000000000000008000000200200100000200000100000,
02210202,
1110222011102220,
0011221120200
#GOGOEND
0
#GOGOSTART
30, //40
0010201111102010,
0010201022112010,
0010200012102050,
000000000008000000200000000000200000000000500000,
000000000008000000200000200000100000200000100000,
0010201000121000,
22013022,
01302201, //48
#GOGOEND
202010201010202010200100,
02120201,
0022201022201010,
0022122000200010,
0010201020122210,
02020121,
22100207,
0008,
22100207,
0000008
#GOGOSTART
3, //58
0020112010201120,
1020112010221120,
1020112020201120,
1020112010221120,
1020112010201120,
1020112010221120,
1120112011201120,
10222221212000
#GOGOEND
0
#GOGOSTART
30, //66
0020112012201120,
1021112010221220,
1120122011201220,
1021112010221220,
1022102021102010,
02210203,
0020121020200030,
0040004000221060, //74
0,
000000000000000008000000000000000000300000300000,
0011201010212010,
000000100100200000100000100000200020002000300000,
0022201022201010,
0021201000202020,
1210111012101110,
0030222210300
#GOGOEND
0
#GOGOSTART
30, //82
0020102210201022,
1021102210211022,
1021212120102010,
0022101000211010,
0022201022201010,
0020002000221122,
#GOGOEND
10402223,
02230303, //90
0,
0,
0,
0, //94
#END

COURSE:Hard
LEVEL:6
BALLOON:10,10
SCOREINIT:2100
SCOREDIFF:0
#START
01111111,
02020200,
01111111,
02020223,
00200223,
00200003,
00303333,
0, //8
10201021,
02010120,
10201021,
02010120,
11201121,
00210120,
11201121,
00210101, //16
11201121,
01210121,
11201121,
01210121,
11201121,
01212120,
11201121,
01212120, //24
101010101010100100200200,
01010202,
101010101010100100200200,
02021210,
101010101010100100200200,
01010202,
10102201,
0010220
#GOGOSTART
3, //32
0010200011102010,
01210221,
0010200011102010,
01010105,
000000000000000008000000200000000000200000100000,
02210202,
11221122,
0011101110200
#GOGOEND
0
#GOGOSTART
30, //40
0010200011102010,
01210221,
0010200011102050,
000000000008000000200000000000200000000000500000,
000000000000000008000000200000000000000000100000,
01210100,
22003022,
00302203, //48
#GOGOEND
00000002,
02220201,
02212211,
02220201,
00012221,
02020121,
22100207,
0008,
22100207,
0000008
#GOGOSTART
3, //58
02121212,
0020111000202010,
02121212,
02020201,
02121212,
0020111000200020,
11111111,
0020200020200
#GOGOEND
0
#GOGOSTART
30, //66
02121212,
1020111000202010,
02121212,
1020111000200020,
02121221,
02210203,
01202203,
04040406, //74
0,
000000000000000008000000000000000000300000300000,
0,
00000003,
02212211,
02210222,
1110101011101010,
0030000030300
#GOGOEND
0
#GOGOSTART
30, //82
02101010,
1111,
1022202220101010,
02020201,
02212211,
0020002000111110,
#GOGOEND
10402223,
02230303, //90
0,
0,
0,
0, //94
#END

COURSE:Normal
LEVEL:5
BALLOON:8,7,7,7,7
SCOREINIT:3260
SCOREDIFF:0
#START
000000500000000000000000000000000000000008000000,
02020200,
000000500000000000000000000000000000000008000000,
02020223,
00200223,
00200007,
00000008,
0, //8
10201011,
01010000,
10201011,
01010000,
10201011,
00020220,
10201011,
00220200, //16
10201011,
01010020,
10201011,
01010020,
10201011,
01101120,
10201011,
01102020, //24
500000000000000000000000000000000000000008000000,
01010202,
500000000000000000000000000000000000000008000000,
02021010,
500000000000000000000000000000000000000008000000,
01010202,
10102201,
0010220
#GOGOSTART
3, //32
02201022,
01110221,
02201022,
01010105,
000000000000000008000000200000000000000000100000,
01110202,
70000008,
0000000000000
#GOGOEND
0
#GOGOSTART
30, //40
02201022,
01110221,
02201025,
000000000008000000200000000000200000000000500000,
000000000000000008000000200000000000000000100000,
02220100,
22003022,
00302203, //48
#GOGOEND
00000002,
02220201,
02202201,
02220201,
00002222,
02020220,
22100207,
0008,
22100207,
0000008
#GOGOSTART
3, //58
02120202,
02120202,
02120202,
02120202,
02120202,
02120201,
70000008,
0000000000000
#GOGOEND
0
#GOGOSTART
30, //66
02120202,
02120202,
02120202,
02120202,
02120202,
02120203,
00202203,
04040406, //74
0,
000000000000000008000000000000000000300000300000,
0,
00000003,
02202201,
02220222,
5,
000000000000000000000008000000000000000
#GOGOEND
000
#GOGOSTART
300000, //82
0111,
1111,
10101011,
02020201,
02202201,
02020000,
#GOGOEND
10400003,
00030303, //90
0,
0,
0,
0, //94
#END

COURSE:Easy
LEVEL:4
BALLOON:7,5,5,5,5
SCOREINIT:5430
SCOREDIFF:0
#START
000000500000000000000000000000000000000008000000,
0,
000000500000000000000000000000000000000008000000,
00000003,
00000003,
00000007,
00000008,
0, //8
11,
01010000,
11,
01010000,
10101001,
0,
10101001,
0, //16
22,
01010000,
22,
01010000,
20202001,
0110,
20202001,
0110, //24
500000000000000000000000000000000008000000000000,
02020000,
500000000000000000000000000000000008000000000000,
02,
500000000000000000000000000000000008000000000000,
02020000,
10102001,
0010200
#GOGOSTART
3, //32
00202001,
01010001,
00202001,
01010105,
000000000000000000000008000000000000000000100000,
01010000,
70000008,
0000000000000
#GOGOEND
0
#GOGOSTART
30, //40
00202001,
01010001,
00202005,
0,
000000000000000000000000000000000000000008000000,
0,
02003002,
00302203, //48
#GOGOEND
00000002,
02020200,
0220,
02020201,
0022,
02020200,
10100207,
0008,
10100207,
0000008
#GOGOSTART
3, //58
00020201,
00020201,
00020201,
00020201,
00020201,
00020201,
70000008,
0000000000000
#GOGOEND
0
#GOGOSTART
30, //66
02020201,
02020201,
02020201,
02020201,
02020201,
02020203,
00202003,
04040406, //74
0,
000000000000000008000000000000000000300000300000,
0,
00000003,
00200201,
0202,
5,
000000000000000000000008000000000000000
#GOGOEND
000
#GOGOSTART
300000, //82
0111,
1111,
10101011,
02020200,
05000000,
000000000000000000000000000008000000000000000000,
#GOGOEND
10400003,
00030303, //90
0,
0,
0,
0, //94
#END
