//TJADB Project
TITLE:Neon Sign
TITLEJA:Neon Sign
SUBTITLE:--chirp×chirp / PolaPoriPosuPo
SUBTITLEJA:chirp×chirp 「ポラポリポスポ」より
BPM:120.734
WAVE:Neon Sign.ogg
OFFSET:-1.357
DEMOSTART:58.603

COURSE:Oni
LEVEL:8
BALLOON:
SCOREINIT:2550
SCOREDIFF:0
#START
1002020010001000,
1002020010001000,
#BPMCHANGE 121.268
#SCROLL 0.99
1002020020202020,
2022022011101110,
#BPMCHANGE 121.827
#GOGOSTART
1021012210202010,
#BPMCHANGE 121.650
1021012210202010,
#BPMCHANGE 119.937
#SCROLL 1
1021012210102020,
#BPMCHANGE 120.604
1204040404021120, //8
#GOGOEND
#BPMCHANGE 121.745
#SCROLL 0.99
1010201110102020,
#BPMCHANGE 120.265
#SCROLL 1
1010201110102011,
#BPMCHANGE 121.871
#SCROLL 0.99
1010201110102020,
#BPMCHANGE 120.142
#SCROLL 1
1010201102102022,
#BPMCHANGE 122.445
#SCROLL 0.98
1010201110102010,
#BPMCHANGE 119.589
#SCROLL 1
1010201110102111,
#BPMCHANGE 122.571
#SCROLL 0.98
1021012210210122,
#BPMCHANGE 120.443
#SCROLL 1
1021021021021000, //16
#BPMCHANGE 120.010
1000201110102010,
#BPMCHANGE 121.008
#SCROLL 0.99
1010201110102022,
#BPMCHANGE 121.336
1010201110102220,
#BPMCHANGE 120.666
#SCROLL 1
3000300022020210,
#BPMCHANGE 120.999
#SCROLL 0.99
1021201210201020,
#BPMCHANGE 120.537
#SCROLL 1
1021201210101000,
#BPMCHANGE 120.805
#SCROLL 0.99
3001201210201020,
#BPMCHANGE 121.664
1021201210101110, //24
#BPMCHANGE 121.711
1021201210201020,
#BPMCHANGE 122.209
#SCROLL 0.98
1021201210102210,
#BPMCHANGE 118.869
#SCROLL 1.01
1021201210212010,
#BPMCHANGE 121.872
#SCROLL 0.99
34340002,
#BPMCHANGE 120.403
#SCROLL 1
34340000, //29
#BPMCHANGE 121.000
#SCROLL 0.99
#GOGOSTART
1010201110102010,
1022120102102011,
1022120102102210,
#BPMCHANGE 121.472
1010203002102011,
#BPMCHANGE 120.530
#SCROLL 1
1010202010221010,
#BPMCHANGE 122.044
#SCROLL 0.98
300000300000400000600000000008000000000000100000, //35
#BPMCHANGE 120.515
#SCROLL 1
1022122010202011,
#BPMCHANGE 121.245
#SCROLL 0.99
1022122010201020,
#BPMCHANGE 122.058
#SCROLL 0.98
500000000000000000000000000000000008000000000000,
#GOGOEND
#BPMCHANGE 118.800
#SCROLL 1.01
30012122,
#BPMCHANGE 121.401
#SCROLL 0.99
#GOGOSTART
1021012210202010,
#BPMCHANGE 121.000
1021012210202010,
#BPMCHANGE 120.968
1021012210102020,
#BPMCHANGE 122.132
#SCROLL 0.98
1204040404021120,
#BPMCHANGE 121.687
#SCROLL 0.99
1204040404021120,
#GOGOEND
0, //45
#END

COURSE:Hard
LEVEL:5
BALLOON:
SCOREINIT:3520
SCOREDIFF:0
#START
1011,
1011,
#BPMCHANGE 121.268
#SCROLL 0.99
10002220,
2000100010101110,
#BPMCHANGE 121.827
#GOGOSTART
1011001010102000,
#BPMCHANGE 121.650
1011001010102000,
#BPMCHANGE 119.937
#SCROLL 1
1011001010102000,
#BPMCHANGE 120.604
1104040404011000, //8
#GOGOEND
#BPMCHANGE 121.745
#SCROLL 0.99
11201121,
#BPMCHANGE 120.265
#SCROLL 1
11201121,
#BPMCHANGE 121.871
#SCROLL 0.99
11201121,
#BPMCHANGE 120.142
#SCROLL 1
1010201101102000,
#BPMCHANGE 122.445
#SCROLL 0.98
11201121,
#BPMCHANGE 119.589
#SCROLL 1
11201121,
#BPMCHANGE 122.571
#SCROLL 0.98
1011001010110010,
#BPMCHANGE 120.443
#SCROLL 1
1002001002001000, //16
#BPMCHANGE 120.010
10201121,
#BPMCHANGE 121.008
#SCROLL 0.99
10201121,
#BPMCHANGE 121.336
10201122,
#BPMCHANGE 120.666
#SCROLL 1
3000300022020200,
#BPMCHANGE 120.999
#SCROLL 0.99
1001101010022000,
#BPMCHANGE 120.537
#SCROLL 1
1001101010022000,
#BPMCHANGE 120.805
#SCROLL 0.99
1001102010011020,
#BPMCHANGE 121.664
1001102010101000, //24
#BPMCHANGE 121.711
1001101010022000,
#BPMCHANGE 122.209
#SCROLL 0.98
1001101010002220,
#BPMCHANGE 118.869
#SCROLL 1.01
1001102010011020,
#BPMCHANGE 121.872
#SCROLL 0.99
33330002,
#BPMCHANGE 120.403
#SCROLL 1
33330000, //29
#BPMCHANGE 121.000
#SCROLL 0.99
#GOGOSTART
30201122,
1010220200202000,
1010220200202020,
#BPMCHANGE 121.472
11230001,
#BPMCHANGE 120.530
#SCROLL 1
12121212,
#BPMCHANGE 122.044
#SCROLL 0.98
300000300000400000600000000008000000000000100000, //35
#BPMCHANGE 120.515
#SCROLL 1
1022022020202010,
#BPMCHANGE 121.245
#SCROLL 0.99
1022022020201010,
#BPMCHANGE 122.058
#SCROLL 0.98
500000000000000000000000000000000008000000000000,
#GOGOEND
#BPMCHANGE 118.800
#SCROLL 1.01
30002100,
#BPMCHANGE 121.401
#SCROLL 0.99
#GOGOSTART
1011001010102000,
#BPMCHANGE 121.000
1011001010102000,
#BPMCHANGE 120.968
1011001010102000,
#BPMCHANGE 122.132
#SCROLL 0.98
1104040404011000,
#BPMCHANGE 121.687
#SCROLL 0.99
1104040404011040,
#GOGOEND
0, //45
#END

COURSE:Normal
LEVEL:5
BALLOON:5,6
SCOREINIT:5850
SCOREDIFF:0
#START
1011,
1011,
#BPMCHANGE 121.268
#SCROLL 0.99
1022,
20101110,
#BPMCHANGE 121.827
#GOGOSTART
1001000010101000,
#BPMCHANGE 121.650
1001000010101000,
#BPMCHANGE 119.937
#SCROLL 1
1001000010101000,
#BPMCHANGE 120.604
600000000000000000000000000000000008000000000000, //8
#GOGOEND
#BPMCHANGE 121.745
#SCROLL 0.99
10201120,
#BPMCHANGE 120.265
#SCROLL 1
10201120,
#BPMCHANGE 121.871
#SCROLL 0.99
10201120,
#BPMCHANGE 120.142
#SCROLL 1
10200120,
#BPMCHANGE 122.445
#SCROLL 0.98
10201120,
#BPMCHANGE 119.589
#SCROLL 1
10201120,
#BPMCHANGE 122.571
#SCROLL 0.98
1002000010020000,
#BPMCHANGE 120.443
#SCROLL 1
1002001002001000, //16
#BPMCHANGE 120.010
10201120,
#BPMCHANGE 121.008
#SCROLL 0.99
10201120,
#BPMCHANGE 121.336
10201120,
#BPMCHANGE 120.666
3320,
#BPMCHANGE 120.999
#SCROLL 0.99
1001001010000000,
#BPMCHANGE 120.537
#SCROLL 1
1001001010000000,
#BPMCHANGE 120.805
#SCROLL 0.99
1001001010010010,
#BPMCHANGE 121.664
1001001010001000, //24
#BPMCHANGE 121.711
1001001010002000,
#BPMCHANGE 122.209
#SCROLL 0.98
1001001010002000,
#BPMCHANGE 118.869
#SCROLL 1.01
1001001010010010,
#BPMCHANGE 121.872
#SCROLL 0.99
78,
#BPMCHANGE 120.403
#SCROLL 1
78, //29
#BPMCHANGE 121.000
#SCROLL 0.99
#GOGOSTART
1212,
1010100100000000,
1010100100001000,
#BPMCHANGE 121.472
11030000,
#BPMCHANGE 120.530
#SCROLL 1
10101110,
#BPMCHANGE 122.044
#SCROLL 0.98
300000300000300000600000000008000000000000000000, //35
#BPMCHANGE 120.515
#SCROLL 1
10102220,
#BPMCHANGE 121.245
#SCROLL 0.99
10102220,
#BPMCHANGE 122.058
#SCROLL 0.98
500000000000000000000000000000000008000000000000,
#GOGOEND
#BPMCHANGE 118.800
#SCROLL 1.01
3,
#BPMCHANGE 121.401
#SCROLL 0.99
#GOGOSTART
1001000010101000,
#BPMCHANGE 121.000
1001000010101000,
#BPMCHANGE 120.968
1001000010101000,
#BPMCHANGE 122.132
#SCROLL 0.98
600000000000000000000000000000000008000000000000,
#BPMCHANGE 121.687
#SCROLL 0.99
600000000000000000000000000000000000000008000000,
#GOGOEND
0, //45
#END

COURSE:Easy
LEVEL:3
BALLOON:4,5
SCOREINIT:11700
SCOREDIFF:0
#START
1,
1,
#BPMCHANGE 121.268
#SCROLL 0.99
12,
2,
#BPMCHANGE 121.827
#GOGOSTART
1011,
#BPMCHANGE 121.650
1011,
#BPMCHANGE 119.937
#SCROLL 1
1011,
#BPMCHANGE 120.604
600000000000000000000000000008000000000000000000, //8
#GOGOEND
#BPMCHANGE 121.745
#SCROLL 0.99
11,
#BPMCHANGE 120.265
#SCROLL 1
12,
#BPMCHANGE 121.871
#SCROLL 0.99
11,
#BPMCHANGE 120.142
#SCROLL 1
1,
#BPMCHANGE 122.445
#SCROLL 0.98
11,
#BPMCHANGE 119.589
#SCROLL 1
12,
#BPMCHANGE 122.571
#SCROLL 0.98
11,
#BPMCHANGE 120.443
#SCROLL 1
500000000000000000000000000008000000000000000000, //16
#BPMCHANGE 120.010
11,
#BPMCHANGE 121.008
#SCROLL 0.99
12,
#BPMCHANGE 121.336
11,
#BPMCHANGE 120.666
3300,
#BPMCHANGE 120.999
#SCROLL 0.99
1110,
#BPMCHANGE 120.537
#SCROLL 1
1110,
#BPMCHANGE 120.805
#SCROLL 0.99
11,
#BPMCHANGE 121.664
1110, //24
#BPMCHANGE 121.711
1110,
#BPMCHANGE 122.209
#SCROLL 0.98
1110,
#BPMCHANGE 118.869
#SCROLL 1.01
1111,
#BPMCHANGE 121.872
#SCROLL 0.99
78,
#BPMCHANGE 120.403
#SCROLL 1
78, //29
#BPMCHANGE 121.000
#SCROLL 0.99
#GOGOSTART
1110,
1000000100000000,
1000000100000000,
#BPMCHANGE 121.472
10030000,
#BPMCHANGE 120.530
#SCROLL 1
1111,
#BPMCHANGE 122.044
#SCROLL 0.98
600000000000000000000000000008000000000000000000, //35
#BPMCHANGE 120.515
#SCROLL 1
1022,
#BPMCHANGE 121.245
#SCROLL 0.99
1022,
#BPMCHANGE 122.058
#SCROLL 0.98
500000000000000000000000000008000000000000000000,
#GOGOEND
#BPMCHANGE 118.800
#SCROLL 1.01
3,
#BPMCHANGE 121.401
#SCROLL 0.99
#GOGOSTART
1011,
#BPMCHANGE 121.000
1011,
#BPMCHANGE 120.968
1011,
#BPMCHANGE 122.132
#SCROLL 0.98
600000000000000000000000000008000000000000000000,
#BPMCHANGE 121.687
#SCROLL 0.99
600000000000000000000000000000000000000008000000,
#GOGOEND
0, //45
#END
