//TJADB Project
TITLE:Halo
TITLEJA:ハロ
SUBTITLE:--Pokémon Horizons: The Series
SUBTITLEJA:アニメ「ポケットモンスター(2023)」より
BPM:170
WAVE:Halo.ogg
OFFSET:-1.602
DEMOSTART:49.467

COURSE:Oni
LEVEL:7
SCOREINIT:760,2430
SCOREDIFF:215
#START
2022,
2022,
2222,
00003300, //4
1010201000102011,
1010202000102011,
1010201000102011,
1010201110202000,
1010201110201010,
2300, //10
10212021,
11210020,
10212021,
11210020,
10212021,
11210121,
10211021,
1011101020101000, //18
10211021,
1110201020002010,
10211021,
1110201020102000,
10212120,
1110201020102000,
3000202010202011,
1330, //26
10011021,
1000001010002011,
1020001010002011,
1020001010002220,
1000201210102000,
1000201210102000,
4030403040304011,
1010001110222000, //34
#GOGOSTART
1000102011101110,
1000102011101110,
1000200011105000,
000000000008000000000000100000100000200200200000,
1000200010102220,
1000200010102220,
1000200010102220,
1000101120000000, //42
1000102011101110,
1000102011101110,
40414060,
000000000008000000000000200000100000100000000000,
10212012,
10112101,
12012110,
1020101110201000, //50
10121122,
10121122,
1011101010111010,
1022201022201000, //54
#GOGOEND
32232230,
02222020,
32030230,
02222020,
32232230,
#BPMCHANGE 153
#SCROLL 1.11
02222020,
2,
0,
0, //63
#END

COURSE:Hard
LEVEL:3
BALLOON:9,9,22
SCOREINIT:960,4670
SCOREDIFF:318
#START
22,
22,
2022,
0,
1112,
1012,
1112,
1012,
10101110,
2300, //10
1220,
10210000,
1220,
10210000,
1220,
10210000,
1212,
500000000000000000000000000000000008000000000000, //18
10211000,
10111000,
10211000,
10111000,
1212,
10101110,
3,
3330, //26
20022002,
20022001,
10011001,
10011020,
10211020,
10211020,
70000008,
33, //34
#GOGOSTART
10201110,
10201110,
1215,
000000000008000000000000100000100000100000000000,
10001110,
10002220,
20002220,
70000008, //42
10201120,
10201120,
3336,
000000000008000000000000200000000000200000000000,
10222011,
10112200,
10001110,
10101100, //50
10222011,
10112210,
9,
09, //54
#GOGOEND
8,
0,
30030030,
0022,
30030030,
#BPMCHANGE 153
#SCROLL 1.11
0022,
2,
0,
0, //63
#END

COURSE:Normal
LEVEL:3
BALLOON:7,7,15
SCOREINIT:1210,7610
SCOREDIFF:610
#START
2,
2,
2022,
0,
1110,
11,
1110,
11,
1111,
0300, //10
1,
1,
1,
1,
1,
1,
12,
500000000000000000000000000000000008000000000000, //18
11,
1110,
11,
1110,
12,
1110,
3,
3330, //26
22,
2,
11,
1,
2220,
1110,
70000008,
33, //34
#GOGOSTART
1011,
1011,
1115,
000000000008000000000000000000000000000000000000,
1011,
1022,
2022,
70000008, //42
1011,
1011,
3336,
000000000008000000000000000000000000000000000000,
12,
1120,
12,
1110, //50
12,
1120,
9,
09, //54
#GOGOEND
8,
0,
30030030,
02,
30030030,
#BPMCHANGE 153
#SCROLL 1.11
02,
2,
0,
0, //63
#END

COURSE:Easy
LEVEL:1
BALLOON:10,9,12
SCOREINIT:1280,13550
SCOREDIFF:1170
#START
2,
0,
2,
0,
1,
1,
1,
11,
7,
08, //10
1,
0,
1,
1,
1,
0,
1,
500000000000000000000000000008000000000000000000, //18
1,
1,
1,
1,
11,
11,
3,
3330, //26
1,
0,
1,
0,
1,
1,
7,
08, //34
#GOGOSTART
11,
11,
1011,
0,
11,
11,
11,
1, //42
11,
11,
3033,
0,
2,
2,
2,
0, //50
11,
11,
9,
09, //54
#GOGOEND
8,
0,
3003,
0,
3003,
#BPMCHANGE 153
#SCROLL 1.11
0,
2,
0,
0, //63
#END
