//TJADB Project
TITLE:La Campanella
TITLEJA:ラ・カンパネラ
SUBTITLE:--Franz Liszt
SUBTITLEJA:リスト
BPM:86.37
WAVE:La Campanella.ogg
OFFSET:-3.806
DEMOSTART:8.777 //Shinuchi:
8830/6250/3430/2420/1380

COURSE:Edit
LEVEL:9
BALLOON:
SCOREINIT:480,1420
SCOREDIFF:120
#START
#MEASURE 3/4
#SCROLL 0.9
0,
#BPMCHANGE 78.01
#SCROLL 1
000000011200000000,
#BPMCHANGE 101.44
#SCROLL 0.99
000022222222, //3
#BPMCHANGE 100.5
#SCROLL 1
122222122222,
#BPMCHANGE 100
122222112222,
121222122222,
121111201222, //7
121222122222,
121222122212,
121122121122,
#BPMCHANGE 98.03
#SCROLL 1.02
121120404030, //11
#BPMCHANGE 100.4
#SCROLL 1
100111200100222200,
100111200100222100,
100111200100122200,
200000300000100100202020200000200000, //15
100111222100122222,
#BPMCHANGE 100
100000500000000008000000201010201010,
202222112222,
101110400000,
#MEASURE 3/8
122222, //20
#MEASURE 3/4
121122121122,
101010101010100200000200200200200200,
121122121122,
101010101010100200000200200200200200, //24
121122121122,
122211122211,
122211122211,
201111202111, //28
202122212121,
201111101111,
202122212121,
201122101122, //32
202222121122,
100000101010101010200000100100100100,
202222121122,
100000101010101010200000202000101000, //36
111111222222222111,
100120120111111100,
#BPMCHANGE 99.02
#SCROLL 1.01
111111222222222111,
#BPMCHANGE 100.7
#SCROLL 0.99
111111222222222111, //40
#BPMCHANGE 115.54
#SCROLL 0.87
101111222222,
111111222222,
#BPMCHANGE 115
112222112211, //43
#BPMCHANGE 105.4
#SCROLL 0.95
212121
#BPMCHANGE 99.23
#SCROLL 1.01
212121,
#BPMCHANGE 95.04
#SCROLL 1.05
212121
#BPMCHANGE 84.55
#SCROLL 1.18
212120, //45
#BPMCHANGE 95.67
#SCROLL 1.05
302222
#BPMCHANGE 99.9
#SCROLL 1
222222,
#BPMCHANGE 108.8
#SCROLL 0.92
222222
#BPMCHANGE 116.82
#SCROLL 1.97
121122, //47
#BPMCHANGE 115
#SCROLL 2
#GOGOSTART
121211121211,
212212112212,
#BPMCHANGE 113.37
#SCROLL 2.03
121221121221,
#BPMCHANGE 111.54
#SCROLL 2.06
403011
#BPMCHANGE 100.68
#SCROLL 2.28
222212, //51
#BPMCHANGE 103.36
#SCROLL 2.23
121122
#BPMCHANGE 100.67
#SCROLL 2.28
121122,
#BPMCHANGE 101.17
#SCROLL 2.27
101111
#BPMCHANGE 93.82
#SCROLL 2.45
111111, //53
#BPMCHANGE 100.92
#SCROLL 2.28
401111
#BPMCHANGE 104.14
#SCROLL 2.21
111111,
#BPMCHANGE 110.15
#SCROLL 2.09
411111
#BPMCHANGE 116.57
#SCROLL 1.97
111111, //55
#BPMCHANGE 115
#SCROLL 2
400000100000200000101010200000200200,
101010200000200200101010200000200100,
#BPMCHANGE 114.01
#SCROLL 2.02
200100100000300000101010200100200200,
#BPMCHANGE 115.11
#SCROLL 2
101010200100200200101010200100201010, //59
211020222022,
222030222022,
222030221030,
211030111030, //63
000211211211211211,
200000000000000000600000000008000000,
#BPMCHANGE 115
3,
#GOGOEND
0,
#MEASURE 4/4
0, //68
#END

COURSE:Oni
LEVEL:7
BALLOON:
SCOREINIT:750,2540
SCOREDIFF:215
#START
#MEASURE 3/4
#SCROLL 1.18
0,
#BPMCHANGE 78.01
#SCROLL 1.26
03,
#BPMCHANGE 101.44
#SCROLL 0.98
2, //3
#BPMCHANGE 100.5
#SCROLL 1.07
200202,
#BPMCHANGE 100
200202,
200202,
202200, //7
120202,
120202,
101220101220,
#BPMCHANGE 98.03
#SCROLL 1.09
101120202000, //11
#BPMCHANGE 100.4
#SCROLL 1.07
102220102020,
102220102020,
102220102020,
111221, //15
122122,
#BPMCHANGE 100
110011,
101220100000,
101220300000,
#MEASURE 3/8
222222, //20
#MEASURE 3/4
112112,
100012002222,
122122,
100012002222, //24
112210112210,
122022121022,
121022121011,
201122102211, //28
222222,
202211201122,
122222,
201020102211, //32
202020221122,
101122102211,
202222221122,
101122102211, //36
200220102020,
100122,
#BPMCHANGE 99.02
#SCROLL 1.08
100220102020,
#BPMCHANGE 100.7
#SCROLL 1.06
11, //40
#BPMCHANGE 115.54
#SCROLL 0.93
112211,
122211,
#BPMCHANGE 115
112121, //43
#BPMCHANGE 105.4
#SCROLL 1.02
222
#BPMCHANGE 99.23
#SCROLL 1.07
222,
#BPMCHANGE 95.04
#SCROLL 1.13
222
#BPMCHANGE 84.55
#SCROLL 1.27
222, //45
#BPMCHANGE 95.67
#SCROLL 1.12
3
#BPMCHANGE 99.9
#SCROLL 1.07
0,
#BPMCHANGE 108.8
#SCROLL 0.98
000
#BPMCHANGE 116.82
#SCROLL 1.07
441, //47
#BPMCHANGE 115
#SCROLL 1.08
#GOGOSTART
102210102010,
201110201010,
#BPMCHANGE 113.37
#SCROLL 1.1
102120102120,
#BPMCHANGE 111.54
#SCROLL 1.12
330
#BPMCHANGE 100.68
#SCROLL 1.24
221, //51
#BPMCHANGE 103.36
#SCROLL 1.2
102210
#BPMCHANGE 100.67
#SCROLL 1.24
102210,
#BPMCHANGE 101.17
#SCROLL 1.23
3
#BPMCHANGE 93.82
#SCROLL 1.33
0, //53
#BPMCHANGE 100.92
#SCROLL 1.23
3
#BPMCHANGE 104.14
#SCROLL 1.2
0,
#BPMCHANGE 110.15
#SCROLL 1.13
3
#BPMCHANGE 116.57
#SCROLL 1.07
0, //55
#BPMCHANGE 115
100020122022,
112021122022,
#BPMCHANGE 114.01
112010122021,
#BPMCHANGE 115.11
#SCROLL 1.06
122021122022, //59
112010112022,
112030112022,
112040211030,
211040211030, //63
011133,
300122,
#BPMCHANGE 115
3,
#GOGOEND
#SCROLL 1.07
0,
#MEASURE 4/4
0, //68
#END

COURSE:Hard
LEVEL:7
BALLOON:
SCOREINIT:900,3630
SCOREDIFF:280
#START
#MEASURE 3/4
#SCROLL 1.18
0,
#BPMCHANGE 78.01
#SCROLL 1.26
03,
#BPMCHANGE 101.44
#SCROLL 0.98
2, //3
#BPMCHANGE 100.5
#SCROLL 1.07
200202,
#BPMCHANGE 100
200202,
200202,
202200, //7
120202,
120202,
101110102020,
#BPMCHANGE 98.03
#SCROLL 1.09
101110000000, //11
#BPMCHANGE 100.4
#SCROLL 1.07
121121,
120211,
102102,
101100, //15
121121,
#BPMCHANGE 100
1,
202220000000,
202220300000,
#MEASURE 3/8
0, //20
#MEASURE 3/4
122122,
1,
122122,
1, //24
112112,
120120,
102000101011,
1, //28
122222,
211100,
122222,
211100, //32
101010222020,
211100,
101010222020,
211100, //36
100110102020,
100122,
#BPMCHANGE 99.02
#SCROLL 1.08
100110102020,
#BPMCHANGE 100.7
#SCROLL 1.06
11, //40
#BPMCHANGE 115.54
#SCROLL 0.93
112211,
221122,
#BPMCHANGE 115
112121, //43
#BPMCHANGE 105.4
#SCROLL 1.02
3
#BPMCHANGE 99.23
#SCROLL 1.07
0,
#BPMCHANGE 95.04
#SCROLL 1.13
0
#BPMCHANGE 84.55
#SCROLL 1.27
0, //45
#BPMCHANGE 95.67
#SCROLL 1.12
3
#BPMCHANGE 99.9
#SCROLL 1.07
0,
#BPMCHANGE 108.8
#SCROLL 0.98
0
#BPMCHANGE 116.82
#SCROLL 1.07
0, //47
#BPMCHANGE 115
#SCROLL 1.08
#GOGOSTART
121121,
102121,
#BPMCHANGE 113.37
#SCROLL 1.1
121121,
#BPMCHANGE 111.54
#SCROLL 1.12
1
#BPMCHANGE 100.68
#SCROLL 1.24
0, //51
#BPMCHANGE 103.36
#SCROLL 1.2
121
#BPMCHANGE 100.67
#SCROLL 1.24
121,
#BPMCHANGE 101.17
#SCROLL 1.23
3
#BPMCHANGE 93.82
#SCROLL 1.33
0, //53
#BPMCHANGE 100.92
#SCROLL 1.23
3
#BPMCHANGE 104.14
#SCROLL 1.2
0,
#BPMCHANGE 110.15
#SCROLL 1.13
3
#BPMCHANGE 116.57
#SCROLL 1.07
0, //55
#BPMCHANGE 115
100010111010,
111010111011,
#BPMCHANGE 114.01
101020111020,
#BPMCHANGE 115.11
#SCROLL 1.06
111020111020, //59
101020111010,
111030111010,
111030111040,
111040111030, //63
011133,
300122,
#BPMCHANGE 115
3,
#GOGOEND
#SCROLL 1.07
0,
#MEASURE 4/4
0, //68
#END

COURSE:Normal
LEVEL:6
BALLOON:30
SCOREINIT:1290,6790
SCOREDIFF:510
#START
#MEASURE 3/4
#SCROLL 1.18
0,
#BPMCHANGE 78.01
#SCROLL 1.26
03,
#BPMCHANGE 101.44
#SCROLL 0.98
0, //3
#BPMCHANGE 100.5
#SCROLL 1.07
200202,
#BPMCHANGE 100
2,
200202,
202200, //7
100202,
200220,
11,
#BPMCHANGE 98.03
#SCROLL 1.09
1, //11
#BPMCHANGE 100.4
#SCROLL 1.07
101101,
1,
102102,
1, //15
101101,
#BPMCHANGE 100
100011,
11,
13,
#MEASURE 3/8
0, //20
#MEASURE 3/4
100110,
1,
100220,
2, //24
100110,
11,
100111,
1, //28
122200,
011100,
122200,
011100, //32
122200,
211100,
122200,
122200, //36
101102,
1,
#BPMCHANGE 99.02
#SCROLL 1.08
102202,
#BPMCHANGE 100.7
#SCROLL 1.06
11, //40
#BPMCHANGE 115.54
#SCROLL 0.93
7,
0,
#BPMCHANGE 115
0, //43
#BPMCHANGE 105.4
#SCROLL 1.02
0
#BPMCHANGE 99.23
#SCROLL 1.07
0,
#BPMCHANGE 95.04
#SCROLL 1.13
000000000008000000
#BPMCHANGE 84.55
#SCROLL 1.27
000000000000000000, //45
#BPMCHANGE 95.67
#SCROLL 1.12
3
#BPMCHANGE 99.9
#SCROLL 1.07
0,
#BPMCHANGE 108.8
#SCROLL 0.98
0
#BPMCHANGE 116.82
#SCROLL 1.07
0, //47
#BPMCHANGE 115
#SCROLL 1.08
#GOGOSTART
102101,
102101,
#BPMCHANGE 113.37
#SCROLL 1.1
11,
#BPMCHANGE 111.54
#SCROLL 1.12
1
#BPMCHANGE 100.68
#SCROLL 1.24
0, //51
#BPMCHANGE 103.36
#SCROLL 1.2
102
#BPMCHANGE 100.67
#SCROLL 1.24
102,
#BPMCHANGE 101.17
#SCROLL 1.23
1
#BPMCHANGE 93.82
#SCROLL 1.33
0, //53
#BPMCHANGE 100.92
#SCROLL 1.23
3
#BPMCHANGE 104.14
#SCROLL 1.2
0,
#BPMCHANGE 110.15
#SCROLL 1.13
3
#BPMCHANGE 116.57
#SCROLL 1.07
0, //55
#BPMCHANGE 115
100110,
100110,
#BPMCHANGE 114.01
12,
#BPMCHANGE 115.11
#SCROLL 1.06
22, //59
110000,
113000,
113003,
003003, //63
011111,
1,
#BPMCHANGE 115
3,
#GOGOEND
#SCROLL 1.07
0,
#MEASURE 4/4
0, //68
#END

COURSE:Easy
LEVEL:4
BALLOON:15
SCOREINIT:1000,9780
SCOREDIFF:600
#START
#MEASURE 3/4
#SCROLL 1.18
0,
#BPMCHANGE 78.01
#SCROLL 1.26
03,
#BPMCHANGE 101.44
#SCROLL 0.98
0, //3
#BPMCHANGE 100.5
#SCROLL 1.07
22,
#BPMCHANGE 100
2,
22,
202200, //7
12,
2,
11,
#BPMCHANGE 98.03
#SCROLL 1.09
1, //11
#BPMCHANGE 100.4
#SCROLL 1.07
12,
1,
12,
101100, //15
12,
#BPMCHANGE 100
100011,
11,
13,
#MEASURE 3/8
0, //20
#MEASURE 3/4
11,
1,
11,
1, //24
11,
12,
12,
1, //28
1,
011100,
1,
011100, //32
2,
011100,
2,
011100, //36
100110,
1,
#BPMCHANGE 99.02
#SCROLL 1.08
100110,
#BPMCHANGE 100.7
#SCROLL 1.06
11, //40
#BPMCHANGE 115.54
#SCROLL 0.93
7,
0,
#BPMCHANGE 115
0, //43
#BPMCHANGE 105.4
#SCROLL 1.02
0
#BPMCHANGE 99.23
#SCROLL 1.07
0,
#BPMCHANGE 95.04
#SCROLL 1.13
000000000008000000
#BPMCHANGE 84.55
#SCROLL 1.27
000000000000000000, //45
#BPMCHANGE 95.67
#SCROLL 1.12
3
#BPMCHANGE 99.9
#SCROLL 1.07
0,
#BPMCHANGE 108.8
#SCROLL 0.98
0
#BPMCHANGE 116.82
#SCROLL 1.07
0, //47
#BPMCHANGE 115
#SCROLL 1.08
#GOGOSTART
110100,
1,
#BPMCHANGE 113.37
#SCROLL 1.1
110100,
#BPMCHANGE 111.54
#SCROLL 1.12
1
#BPMCHANGE 100.68
#SCROLL 1.24
0, //51
#BPMCHANGE 103.36
#SCROLL 1.2
110
#BPMCHANGE 100.67
#SCROLL 1.24
100,
#BPMCHANGE 101.17
#SCROLL 1.23
1
#BPMCHANGE 93.82
#SCROLL 1.33
0, //53
#BPMCHANGE 100.92
#SCROLL 1.23
3
#BPMCHANGE 104.14
#SCROLL 1.2
0,
#BPMCHANGE 110.15
#SCROLL 1.13
3
#BPMCHANGE 116.57
#SCROLL 1.07
0, //55
#BPMCHANGE 115
100110,
100110,
#BPMCHANGE 114.01
12,
#BPMCHANGE 115.11
#SCROLL 1.06
22, //59
110000,
030,
003003,
030, //63
500000000000000000000000000000000008,
0,
#BPMCHANGE 115
3,
#GOGOEND
#SCROLL 1.07
0,
#MEASURE 4/4
0, //68
#END
