//TJADB Project
TITLE:Tokeru
TITLEJA:とける
SUBTITLE:--katagiri
SUBTITLEJA:かたぎり
BPM:221
WAVE:Tokeru.ogg
OFFSET:-0.153
DEMOSTART:26.216

COURSE:Edit
LEVEL:10
BALLOON:
SCOREINIT:1020
SCOREDIFF:0
#START
101010100000400000000000000000000000100000200200,
#BARLINEOFF
200200200200101010100000200000200000100010001000,
100000200200101010000000202000202000100000100100,
200100222100100200200100,
#BARLINEON
4040100010001022,
100200200000102000100020100000200000101010200000,
1022102011112010,
40004000400000002000220020002000, //8
10014000,
#BARLINEOFF
10104110,
#BARLINEON
10014000,
#BARLINEOFF
1000101040111010,
#BARLINEON
10014000,
#BARLINEOFF
10104110,
#BARLINEON
10014011,
#BARLINEOFF
100200000200200000100000400000100200101000000000, //16
#BARLINEON
10103012,
1001100030202010,
1000100030011021,
100000000100100000100000300000201010200000100100,
1022102030011022,
1021102030212010,
100200100200100200100200100100100100101010101010,
20000000222000000000100022002200, //24
600000000008000000000000400000100000200200100000,
#BARLINEOFF
100020002000200000100000400000100000200000100200,
#BARLINEON
100000200200200000100000400000101010200000100100,
#BARLINEOFF
100000100200200200100000400000100000202020200000,
#BARLINEON
500000000008000000000000400000100000200100100000,
#BARLINEOFF
100020001010200000100000400000100000200100000200,
#BARLINEON
12214212,
#BARLINEOFF
100000200100000200100000400000100000500008000000, //32
#BARLINEON
300000100100100000200000300000001010100020000000,
#BARLINEOFF
300000001010200000200000300000100100200000200000,
#BARLINEON
300000000000200000200000100010001000200000000000300000000000100000100000200200000000100000000000,
#BARLINEOFF
300000000100202000200000300000300000000000000000, //36
#BARLINEON
1010400010004011,
1000400400400400,
#MEASURE 1/32
#BPMCHANGE 6.90625
#SCROLL 32
3,
#MEASURE 4/4
#BPMCHANGE 221
#SCROLL 1
200000000000202020000000100000000000500008000000, //40
300000000000000000100000200200000000100000000000200000100000000000100000100000000000200000002000,
#BARLINEOFF
002000100000100000200000202020100000000100200000,
000000200000000000200000100000000000000000100000200000000000200200000000100000000000100000002000,
000020000000100000000000100000000200200000000000100000000000200000000000100000200000000000100000,
20001000222010002010001020001110,
100000001000000000200000000000200000200000200000100000000000100100000000100100000000300000000000,
200020200000200200100000200000100000100010202020,
000000000000200000000000100100000000100000000000200020000000000020002000000000002000200000000000, //48
#BARLINEON
30000010220010002010001010001000,
#BARLINEOFF
200200200000200020000000100000000000100000000000200020000000100000000000000000100000200000000000,
000200000200100000000000200000200020002000100000,
100100200020002000200000200000000100000100200200,
200100202020100001000003,
00000000002020201000111010001000,
001000200000002000100000200000100000000100200100,
200000100100200100200000100200100200500008000000, //56
#BARLINEON
3011221011210220,
#BARLINEOFF
2012021112202210,
#BARLINEON
1121021212210210,
#BARLINEOFF
2012212012101011,
#BARLINEON
2120212212012022,
#BARLINEOFF
1021021021202010,
#BARLINEON
1221221112112212,
#BARLINEOFF
122122111400, //64
#BARLINEON
30002000220020001000222010002010,
#BARLINEOFF
2212102220102022,
#BARLINEON
10202010102020002200100020001010,
#BARLINEOFF
0300300300302020,
#BARLINEON
300000000000200000000000200000000000100000000000200200000000200000000000100000001000200010000000,
#BARLINEOFF
10002000200010102200100020002020,
#BARLINEON
1020222210202011,
#BARLINEOFF
100000200000200200100000200000100000102000102000, //72
#BARLINEON
#MEASURE 1/4
#BPMCHANGE 55.25
#SCROLL 4
3,
#SCROLL 3.28
0,
#SCROLL 2.69
0,
#SCROLL 2.21
0,
#SCROLL 1.81
0,
#SCROLL 1.49
0,
#SCROLL 1.22
0,
#SCROLL 1
1000002020002222, //80
#MEASURE 2/4
#BPMCHANGE 110.5
#SCROLL 0.58
1111,
#SCROLL 0.68
10101111,
#SCROLL 0.79
1111,
#SCROLL 0.93
1000100010111010,
#MEASURE 4/4
#BPMCHANGE 221
#SCROLL 0.54
30101011,
#SCROLL 0.63
3000100010011010,
#SCROLL 0.73
300000100000100000100000500000000000000000000008,
#SCROLL 0.86
00000000220022001000000020000000, //88
#SCROLL 1
3020200020002220,
#BARLINEOFF
00002000200000002200100040000000,
#BARLINEON
#GOGOSTART
3022102010221202,
1102102210221222,
1022102010221202,
1102102210121122,
1202102211221222,
1021021012104011, //96
#GOGOEND
100000000000000000000000000000000000000000000000200200200200000000000000000020000000100000100000,
200000000000200000000000200020002000200000000000100100000000000000000000400000000000400000000000,
#GOGOSTART
0021201120112120,
200000100100200000200200101010100000400000100100,
1021021120120122,
100000200100000200100100200000100200101010200200,
#GOGOEND
1002,
#GOGOSTART
10101010101010101111100040000000, //104
#GOGOEND
1011202010102020,
100100200200100000000010200000100000200000100000,
1011202010102020,
1121102010212010,
1011202010102020,
100100200200100000000010200000100000200200100000,
1111202010211020,
10102010200010002000201022000000,
0, //113
#END

COURSE:Oni
LEVEL:10
BALLOON:
SCOREINIT:1270
SCOREDIFF:0
#START
3000000000002022,
#BARLINEOFF
2222101020200000,
2011102010101020,
1011201020201010,
#BARLINEON
4040100010001122,
1020111020112000,
1012102011102010,
44402222, //8
10014000,
#BARLINEOFF
10104110,
#BARLINEON
10014000,
#BARLINEOFF
1000101040111010,
#BARLINEON
10014000,
#BARLINEOFF
10104110,
#BARLINEON
10014011,
#BARLINEOFF
2202201040112000, //16
#BARLINEON
10103011,
10103222,
10103011,
10103122,
10103011,
1000100030111020,
500000000000000000000000000000000000000000000008,
00000222, //24
600000000008000000000000400000000000100100100000,
#BARLINEOFF
200020002000200000100000400000100000100100200000,
#BARLINEON
1011221040012011,
#BARLINEOFF
1001101040102020,
#BARLINEON
500000000008000000000000400000100000100100100000,
#BARLINEOFF
100020001000200000100000400000100000000100000000,
#BARLINEON
12214212,
#BARLINEOFF
1021001040102000, //32
#BARLINEON
300000100100100000200000300000002000000020000000,
#BARLINEOFF
3000112030221020,
#BARLINEON
3012102030112010,
#BARLINEOFF
3001202030300000, //36
#BARLINEON
1010400010004011,
1000400400400400,
#MEASURE 1/32
#BPMCHANGE 6.90625
#SCROLL 32
3,
#MEASURE 4/4
#BPMCHANGE 221
#SCROLL 1
2000200011104000, //40
300000000100200000100000000100000000100000200020,
#BARLINEOFF
002000100000100000200000200000100000000200100000,
000200000200200000000100200000100000100000100020,
002000200000200000100000100000200000000200000000,
2010221001012010,
000010000100000200200200100000200000200000300000,
2020112020101020,
000100200100400040004000, //48
#BARLINEON
3001201021001020,
#BARLINEOFF
2000102020100120,
000200000200100000000000200000200020002000100000,
100100200020002000100000200000000200000100200200,
100200101010100003000003,
0000011120101010,
002000200000001000100000200000100000000100100100,
1011212011212020, //56
#BARLINEON
3010111020120120,
#BARLINEOFF
1021021120201122,
#BARLINEON
1021021120120120,
#BARLINEOFF
2012012010202020,
#BARLINEON
1010111120120120,
#BARLINEOFF
1021021120202010,
#BARLINEON
1021021120121120,
#BARLINEOFF
112112111400, //64
#BARLINEON
32222010,
#BARLINEOFF
2222100020102020,
#BARLINEON
1022202020102010,
#BARLINEOFF
0300300300302020,
#BARLINEON
300200200200200000101010,
#BARLINEOFF
1020201020102022,
#BARLINEON
1020202210202011,
#BARLINEOFF
1020221020101120, //72
#BARLINEON
#MEASURE 1/4
#BPMCHANGE 55.25
#SCROLL 4
3,
#SCROLL 3.28
0,
#SCROLL 2.69
0,
#SCROLL 2.21
0,
#SCROLL 1.81
0,
#SCROLL 1.49
0,
#SCROLL 1.22
0,
#SCROLL 1
10022020, //80
#MEASURE 2/4
#BPMCHANGE 110.5
#SCROLL 0.58
1111,
#SCROLL 0.68
10101111,
#SCROLL 0.79
1111,
#SCROLL 0.93
1000100010111010,
#MEASURE 4/4
#BPMCHANGE 221
#SCROLL 0.54
1111,
#SCROLL 0.63
1000100010111010,
#SCROLL 0.73
500000000000000000000000000000000000000000000008,
#SCROLL 0.86
0, //88
#SCROLL 1
32202022,
#BARLINEOFF
02202140,
#BARLINEON
#GOGOSTART
3011201011112011,
1011201021112020,
1011201011112012,
1011201021112020,
1011201022112011,
1021021020104011, //96
#GOGOEND
1000000020000011,
2020212010004040,
#GOGOSTART
0012102010221012,
1022101110112010,
3021021030120120,
3021021030112222,
#GOGOEND
1002,
#GOGOSTART
100100100100100100100100500008000000400000000000, //104
#GOGOEND
11221022,
1020100020112010,
11221022,
1010102020111020,
11221022,
1020100020112010,
1010202010212020,
1011201020212000,
0, //113
#END

COURSE:Hard
LEVEL:8
BALLOON:
SCOREINIT:1710
SCOREDIFF:0
#START
3000000000002022,
#BARLINEOFF
20202200,
1011100010101000,
1011100020201000,
#BARLINEON
4040100010001011,
11102010,
1011101010001000,
44400000, //8
10014000,
#BARLINEOFF
1141,
#BARLINEON
10014000,
#BARLINEOFF
1141,
#BARLINEON
10014000,
#BARLINEOFF
1141,
#BARLINEON
10014000,
#BARLINEOFF
2202200040003000, //16
#BARLINEON
10103011,
10103022,
10103011,
10103022,
10103011,
10103022,
500000000000000000000000000000000000000000000008,
00000222, //24
1000000040001110,
#BARLINEOFF
101010100000400000100100,
#BARLINEON
1011100040001011,
#BARLINEOFF
1001100040002020,
#BARLINEON
1000001040001110,
#BARLINEOFF
100000001000100000000000400000100000000100000000,
#BARLINEON
22204022,
#BARLINEOFF
2002002040002000, //32
#BARLINEON
300100302020,
#BARLINEOFF
3000101030111000,
#BARLINEON
31103020,
#BARLINEOFF
3001100030300000, //36
#BARLINEON
2020400020004022,
2000400400400400,
#MEASURE 1/32
#BPMCHANGE 6.90625
#SCROLL 32
3,
#MEASURE 4/4
#BPMCHANGE 221
#SCROLL 1
2224, //40
300000000100000000100000000100000000100000200020,
#BARLINEOFF
020200000200200100000300,
000100000100100000000100000000100000100000200020,
002000200000000100000000100000200000000200000000,
2020201001002010,
0001022220000030,
0010111010100020,
000100100000400040004000, //48
#BARLINEON
3001001020001110,
#BARLINEOFF
1000100020100220,
000100000100100000000000200000100010001000100000,
000000100010001000100000200000000200000000100100,
100000101010100003000003,
0000022220101010,
0010001020100011,
10221220, //56
#BARLINEON
3000111020010010,
#BARLINEOFF
1001001020001000,
#BARLINEON
1000111020010010,
#BARLINEOFF
0010010020202020,
#BARLINEON
1010111020010010,
#BARLINEOFF
1001001020202000,
#BARLINEON
1010111020101100,
#BARLINEOFF
220220220300, //64
#BARLINEON
30222010,
#BARLINEOFF
2220100020100000,
#BARLINEON
1022200020101010,
#BARLINEOFF
0300300300302020,
#BARLINEON
100000200200200000101010,
#BARLINEOFF
10212122,
#BARLINEON
12201220,
#BARLINEOFF
12212110, //72
#BARLINEON
#MEASURE 1/4
#BPMCHANGE 55.25
#SCROLL 4
3,
#SCROLL 3.28
0,
#SCROLL 2.69
0,
#SCROLL 2.21
0,
#SCROLL 1.81
0,
#SCROLL 1.49
0,
#SCROLL 1.22
0,
#SCROLL 1
10022000, //80
#MEASURE 2/4
#BPMCHANGE 110.5
#SCROLL 0.58
1111,
#SCROLL 0.68
10101111,
#SCROLL 0.79
1111,
#SCROLL 0.93
10101111,
#MEASURE 4/4
#BPMCHANGE 221
#SCROLL 0.54
1111,
#SCROLL 0.63
10101111,
#SCROLL 0.73
500000000000000000000000000000000000000000000008,
#SCROLL 0.86
0, //88
#SCROLL 1
32202022,
#BARLINEOFF
02202140,
#BARLINEON
#GOGOSTART
3011101010001011,
11102120,
1011101010001010,
1011100020102000,
1011101010001011,
1001001020104000, //96
#GOGOEND
3000000020000011,
12201044,
#GOGOSTART
0011101010001011,
1000101110004000,
3003003030030030,
3003003030004000,
#GOGOEND
1,
#GOGOSTART
500000000000000000000000000008000000400000000000, //104
#GOGOEND
11201022,
11102020,
11201022,
11100220,
11201022,
11102020,
11201120,
1010201020222000,
0, //113
#END

COURSE:Normal
LEVEL:7
BALLOON:
SCOREINIT:2720
SCOREDIFF:0
#START
30000022,
#BARLINEOFF
20002200,
10001100,
10002200,
#BARLINEON
44001010,
1120,
10111010,
44400000, //8
14,
#BARLINEOFF
1140,
#BARLINEON
14,
#BARLINEOFF
1140,
#BARLINEON
14,
#BARLINEOFF
1140,
#BARLINEON
14,
#BARLINEOFF
2240, //16
#BARLINEON
10103011,
1130,
10103011,
1130,
10103011,
1130,
500000000000000000000000000000000000000000000008,
0, //24
10004011,
#BARLINEOFF
14,
#BARLINEON
10004011,
#BARLINEOFF
1142,
#BARLINEON
10004011,
#BARLINEOFF
14,
#BARLINEON
2242,
#BARLINEOFF
2002002040000000, //32
#BARLINEON
33,
#BARLINEOFF
3131,
#BARLINEON
33,
#BARLINEOFF
30103300, //36
#BARLINEON
22402040,
2000400400400400,
#MEASURE 1/32
#BPMCHANGE 6.90625
#SCROLL 32
3,
#MEASURE 4/4
#BPMCHANGE 221
#SCROLL 1
0, //40
3000001001001000,
#BARLINEOFF
01022003,
00100101,
0010101000200200,
2020001001001010,
0001000020000030,
01020102,
01104000, //48
#BARLINEON
30012011,
#BARLINEOFF
00102103,
00102001,
0010000020020020,
100000100000300003000003,
0000020020000010,
01002101,
10220220, //56
#BARLINEON
3120,
#BARLINEOFF
1001000020000000,
#BARLINEON
10102001,
#BARLINEOFF
01002220,
#BARLINEON
11002000,
#BARLINEOFF
1001000020000000,
#BARLINEON
1121,
#BARLINEOFF
2223, //64
#BARLINEON
3021,
#BARLINEOFF
00102100,
#BARLINEON
10002011,
#BARLINEOFF
0300300300300000,
#BARLINEON
1021,
#BARLINEOFF
10012100,
#BARLINEON
1212,
#BARLINEOFF
10210210, //72
#BARLINEON
#MEASURE 1/4
#BPMCHANGE 55.25
#SCROLL 4
3,
#SCROLL 3.28
0,
#SCROLL 2.69
0,
#SCROLL 2.21
0,
#SCROLL 1.81
0,
#SCROLL 1.49
0,
#SCROLL 1.22
0,
#SCROLL 1
0, //80
#MEASURE 2/4
#BPMCHANGE 110.5
#SCROLL 0.58
1110,
#SCROLL 0.68
10101110,
#SCROLL 0.79
1110,
#SCROLL 0.93
10101110,
#MEASURE 4/4
#BPMCHANGE 221
#SCROLL 0.54
1110,
#SCROLL 0.63
10101110,
#SCROLL 0.73
500000000000000000000000000000000000000000000008,
#SCROLL 0.86
0, //88
#SCROLL 1
30202022,
#BARLINEOFF
00202240,
#BARLINEON
#GOGOSTART
30101011,
1112,
10101011,
1112,
10101011,
1001001010004000, //96
#GOGOEND
30000001,
10100044,
#GOGOSTART
01101011,
10111040,
3003000030030000,
3003000030004000,
#GOGOEND
1,
#GOGOSTART
500000000000000000000000000008000000400000000000, //104
#GOGOEND
1212,
11102000,
1212,
11100220,
1212,
11102000,
1212,
11111020,
0, //113
#END

COURSE:Easy
LEVEL:5
BALLOON:
SCOREINIT:4010
SCOREDIFF:0
#START
3,
#BARLINEOFF
22,
11,
12,
#BARLINEON
4011,
12,
1110,
3300, //8
14,
#BARLINEOFF
04,
#BARLINEON
14,
#BARLINEOFF
04,
#BARLINEON
14,
#BARLINEOFF
04,
#BARLINEON
14,
#BARLINEOFF
2240, //16
#BARLINEON
1131,
1130,
1131,
1130,
1131,
1130,
500000000000000000000000000000000000000000000008,
0, //24
14,
#BARLINEOFF
14,
#BARLINEON
14,
#BARLINEOFF
1140,
#BARLINEON
14,
#BARLINEOFF
14,
#BARLINEON
2240,
#BARLINEOFF
24, //32
#BARLINEON
33,
#BARLINEOFF
3031,
#BARLINEON
33,
#BARLINEOFF
33, //36
#BARLINEON
2404,
0000400400400000,
#MEASURE 1/32
#BPMCHANGE 6.90625
#SCROLL 32
3,
#MEASURE 4/4
#BPMCHANGE 221
#SCROLL 1
0, //40
30010010,
#BARLINEOFF
00002003,
00100100,
01000200,
00030001,
00002003,
00010002,
04, //48
#BARLINEON
32,
#BARLINEOFF
00102003,
0120,
01002000,
100000000000300003000003,
00002001,
01002000,
10020020, //56
#BARLINEON
32,
#BARLINEOFF
1001000020000000,
#BARLINEON
12,
#BARLINEOFF
01002000,
#BARLINEON
12,
#BARLINEOFF
1001000020000000,
#BARLINEON
12,
#BARLINEOFF
2203, //64
#BARLINEON
3021,
#BARLINEOFF
0120,
#BARLINEON
1021,
#BARLINEOFF
0300300300300000,
#BARLINEON
1021,
#BARLINEOFF
12,
#BARLINEON
11,
#BARLINEOFF
10010010, //72
#BARLINEON
#MEASURE 1/4
#BPMCHANGE 55.25
#SCROLL 4
3,
#SCROLL 3.28
0,
#SCROLL 2.69
0,
#SCROLL 2.21
0,
#SCROLL 1.81
0,
#SCROLL 1.49
0,
#SCROLL 1.22
0,
#SCROLL 1
0, //80
#MEASURE 2/4
#BPMCHANGE 110.5
#SCROLL 0.58
11,
#SCROLL 0.68
1011,
#SCROLL 0.79
11,
#SCROLL 0.93
1011,
#MEASURE 4/4
#BPMCHANGE 221
#SCROLL 0.54
11,
#SCROLL 0.63
1011,
#SCROLL 0.73
500000000000000000000000000000000000000000000008,
#SCROLL 0.86
0, //88
#SCROLL 1
3222,
#BARLINEOFF
0240,
#BARLINEON
#GOGOSTART
3111,
1120,
1111,
1120,
1111,
1034, //96
#GOGOEND
3,
1104,
#GOGOSTART
0111,
1140,
3003000030030000,
3003000030004000,
#GOGOEND
1,
#GOGOSTART
500000000000000000000000000008000000000000000000, //104
#GOGOEND
1110,
1120,
1110,
2,
1110,
1120,
1111,
1122,
0, //113
#END
