//TJADB Project
TITLE:Say Something
TITLEJA:Say Something
TITLEZH:就懂了
SUBTITLE:--
SUBTITLEJA:
SUBTITLEZH:
BPM:112
WAVE:Say Something.ogg
OFFSET:-2.667
DEMOSTART:85.356

COURSE:Oni
LEVEL:6
BALLOON:20,26,18
SCOREINIT:3380
SCOREDIFF:0
#START
0,
0,
0,
2220,
2220,
2220,
2000000010111020, //7
1000001110100000,
2000000010111020,
10110000,
2000000010111020,
10010100,
2000001010111020,
10110000,
2000002020112020, //15
10010100,
2000000010111020,
10110000,
2000000020112020,
10010101,
1020000010111020,
10110000,
2, //23
1011102000200010,
1,
1011102000100020,
200000000000500000000000000000000008000000000000,
1011102000200010,
10120201,
700000000000000000000000000000000000000000000008,
0000000000111020, //31
1000102000221020,
1010102000111020,
1000102000222010,
1010102000111020,
1000102000221020,
1010102000111020,
7,
0000800000111020, //39
#GOGOSTART
3000102010221020,
1010102210222010,
1000102010221020,
1010102210222010,
1000102010221020,
1010102210222010,
6,
000000000008000000200000100000100100100000200200, //47
1000101120201011,
2010202010112020,
1000101120201011,
2010202010112020,
1000101120201011,
2010202010112020,
10170000,
0000801010012010, //55
500000000000000000000000000000000000000008000000,
#GOGOEND
3,
0,
0, //59
#END

COURSE:Hard
LEVEL:4
BALLOON:16,20,14
SCOREINIT:4480
SCOREDIFF:0
#START
0,
0,
0,
2220,
22,
2220,
20001112, //7
10010100,
20001112,
10110000,
20001112,
10010100,
20001112,
10110000,
20022122, //15
10010100,
20001112,
10110000,
20002122,
10010102,
12001112,
10110000,
2, //23
11120201,
1,
11120102,
200000000000500000000000000000000008000000000000,
11120201,
10120201,
700000000000000000000000000000000000000000000008,
00000112, //31
10120110,
10120112,
10120220,
10120112,
10120110,
10120112,
7,
00800112, //39
#GOGOSTART
30120112,
11120221,
10120112,
11120221,
10120112,
11120221,
6,
000000000008000000200000100000100000200000100000, //47
10110211,
01220002,
10110211,
01220002,
10110211,
01220020,
10170000,
0000801010010010, //55
500000000000000000000000000000000000000008000000,
#GOGOEND
3,
0,
0, //59
#END

COURSE:Normal
LEVEL:3
BALLOON:12,16,11
SCOREINIT:7410
SCOREDIFF:0
#START
0,
0,
0,
22,
2,
22,
2011, //7
10010100,
0011,
10110000,
0011,
10010100,
0011,
10110000,
0022, //15
10010100,
0011,
10110000,
0022,
10010100,
0011,
10110000,
0, //23
10100001,
1,
10100002,
2,
10100001,
10010100,
700000000000000000000000000000000000000000000008,
00000110, //31
1101,
10100110,
1102,
10100110,
1101,
10100110,
7,
00800110, //39
#GOGOSTART
30100110,
10100220,
10100110,
10100220,
10100110,
10100220,
6,
000000000008000000000000000000000000000000100000, //47
00110011,
00220001,
00110011,
00220001,
00110011,
00220000,
10170000,
0810, //55
500000000000000000000000000000000000000008000000,
#GOGOEND
3,
0,
0, //59
#END

COURSE:Easy
LEVEL:2
BALLOON:10,12,7
SCOREINIT:12280
SCOREDIFF:0
#START
0,
0,
0,
2,
2,
2,
21, //7
10010000,
01,
1100,
01,
10010000,
01,
1100,
02, //15
10010000,
01,
1100,
02,
10010000,
01,
1100,
0, //23
1100,
2,
1100,
2,
1100,
1,
700000000000000000000000000000000000000000000008,
0, //31
1100,
2200,
1100,
2200,
1100,
1101,
700000000000000000000000000000000000000000000000,
0801, //39
#GOGOSTART
3100,
1101,
1100,
2201,
1100,
1101,
6,
000000000008000000000000000000000000000000100000, //47
00010001,
00020001,
00010001,
00020001,
00010001,
00020000,
10070000,
08001000, //55
500000000000000000000000000008000000000000000000,
#GOGOEND
3,
0,
0, //59
#END
