//TJADB Project
TITLE:Yesterday
TITLEJA:Yesterday
SUBTITLE:--
SUBTITLEJA:
BPM:124
WAVE:Yesterday.ogg
OFFSET:-1.945
DEMOSTART:63.088

COURSE:Oni
LEVEL:6
BALLOON:
SCOREINIT:2990
SCOREDIFF:0
#START
20020002,
0,
20020002,
0,
20020202,
0,
20020202,
04, //8
10212012,
0020102220100010,
10212201,
0010102220102011,
10212201,
01122101,
1110201020111020,
0010102022201000, //16
10212012,
0020102220100010,
10212201,
0012102020121011,
10212201,
0010102220100010,
1110201020111020,
0010102022201000, //24
1000201000222020,
0010112021102010,
1000201000111020,
0012100020121011,
1000201000222020,
0010112021102020,
600000000000000000000000000000000000000008000000,
0000000000202220, //32
#GOGOSTART
1000201220100022,
2010102220112010,
1000201220100022,
2010102220112010,
1022201220102000,
2011101220102010,
1110201020111020,
1011102020102011, //40
1000201220100022,
2010102220112010,
1000201220100022,
2010102220112010,
1022201220102000,
2011101220102010,
1110201020111020,
1011102020102011, //48
#GOGOEND
1,
0,
0,
0, //52
#END

COURSE:Hard
LEVEL:5
BALLOON:
SCOREINIT:4400
SCOREDIFF:0
#START
20000002,
0,
20000002,
0,
20020002,
0,
20020002,
04, //8
10201012,
02102000,
10212201,
01102010,
10212201,
01102100,
30202302,
01102010, //16
10201012,
02102101,
10212201,
01121020,
10212201,
01102100,
30202302,
02102010, //24
10210101,
01102101,
10210101,
01102101,
10210101,
01121120,
600000000000000000000000000000000000000008000000,
0, //32
#GOGOSTART
10211201,
21120121,
10211201,
21120121,
12212120,
21122120,
30212302,
1011101020102000, //40
10211201,
21120121,
10211201,
21120121,
12212120,
21122120,
30210301,
1011101020102000, //48
#GOGOEND
1,
0,
0,
0, //52
#END

COURSE:Normal
LEVEL:4
BALLOON:
SCOREINIT:8690
SCOREDIFF:0
#START
2,
0,
2,
0,
20000002,
0,
20000002,
0, //8
11,
0110,
11,
0110,
11,
0110,
30000300,
02, //16
11,
0120,
11,
0120,
11,
0120,
30000300,
02, //24
10010100,
0120,
10010100,
0120,
10010100,
0122,
600000000000000000000000000000000000000008000000,
0, //32
#GOGOSTART
10201001,
10110010,
10201001,
10110010,
10102220,
10102220,
30000300,
01101000, //40
10201001,
10110010,
10201001,
10110010,
10102220,
10102220,
30000300,
01101000, //48
#GOGOEND
1,
0,
0,
0, //52
#END

COURSE:Easy
LEVEL:3
BALLOON:7,7,7,7
SCOREINIT:13650
SCOREDIFF:0
#START
2,
0,
2,
0,
2,
0,
2,
0, //8
11,
01,
11,
01,
11,
01,
700000000000000000000000000000000000000000080000,
02, //16
11,
02,
11,
02,
11,
02,
700000000000000000000000000000000000000000080000,
02, //24
10010000,
02,
10010000,
02,
10010000,
0011,
600000000000000000000000000000000000000008000000,
0, //32
#GOGOSTART
1210,
1101,
1210,
1101,
1220,
1220,
700000000000000000000000000000000000000000080000,
02, //40
1210,
1101,
1210,
1101,
1220,
1220,
700000000000000000000000000000000000000000080000,
02, //48
#GOGOEND
1,
0,
0,
0, //52
#END
