//TJADB Project
TITLE:Sparrow
TITLEJA:麻雀 Sparrow
TITLEZH:麻雀
SUBTITLE:--
SUBTITLEJA:
SUBTITLEZH:
BPM:85
WAVE:Sparrow.ogg
OFFSET:-2.538
DEMOSTART:69.542

COURSE:Oni
LEVEL:6
BALLOON:
SCOREINIT:3800
SCOREDIFF:0
#START
1000100101101000,
1000100101101000,
2000200202202000,
2000200202202000,
1000100101101000,
1000100101101000,
2000200202202000,
2000200202202000, //8
1010101101102020,
1020101101102000,
1010101101102020,
1020101101102000,
1010201101102020,
1020201101102010,
1010101101102020,
1020101102103000, //16
1010201101102020,
1010201102102000,
1010201101102020,
1010201102102000,
1020201101102020,
1010201102102020,
1010201101102010,
30333340, //24
#GOGOSTART
3010200121102021,
1010200211202001,
1010200210102010,
1120102210203000,
3010200121102021,
1010200211202001,
1010200210102010,
3010201112102010, //32
#GOGOEND
3000002040000011,
500000000008,
0,
0, //36
#END

COURSE:Hard
LEVEL:4
BALLOON:
SCOREINIT:5660
SCOREDIFF:0
#START
1000100100101000,
1000100100101000,
2000200200202000,
2000200200202000,
1000100100101000,
1000100100101000,
2000200200202000,
2000200200202000, //8
1000100100100000,
11110000,
1000100100100000,
11220000,
1000100100100000,
11110000,
1000100100100000,
500000000000000000000008000000000000300000000000, //16
1000201100102000,
11210120,
1000201100102000,
11220120,
1000201100102000,
11210120,
1000201100102000,
30333340, //24
#GOGOSTART
3000200110101001,
1000200110101001,
1000200110102010,
1110001110004000,
3000200110101001,
1000200110101001,
1000200110100010,
3000201110002010, //32
#GOGOEND
30024001,
500000000008,
0,
0, //36
#END

COURSE:Normal
LEVEL:3
BALLOON:9
SCOREINIT:8030
SCOREDIFF:0
#START
10100110,
10100110,
20200220,
20200220,
10100110,
10100110,
20200220,
20200220, //8
1000100100100000,
10110000,
1000100100100000,
10110000,
1000200200200000,
20220000,
1000000100100000,
500000000000000000000008000000000000000000000000, //16
1000100100100000,
10110000,
1000100100100000,
10110000,
1000200200200000,
20220000,
1000100100100000,
30333340, //24
#GOGOSTART
30201110,
10101110,
10101110,
33033040,
30201110,
10101110,
10101101,
70000800, //32
#GOGOEND
34,
500000000008,
0,
0, //36
#END

COURSE:Easy
LEVEL:2
BALLOON:7
SCOREINIT:14430
SCOREDIFF:0
#START
1100,
1100,
2200,
2200,
1100,
1100,
2200,
2200, //8
1100,
1100,
2200,
2200,
1100,
1100,
2200,
500000000000000000000008000000000000000000000000, //16
1100,
1100,
2200,
2200,
1200,
1200,
1100,
600000000000000000000000000008000000000000000000, //24
#GOGOSTART
3110,
1110,
1110,
33033040,
3110,
1110,
1110,
70000800, //32
#GOGOEND
34,
500000000008,
0,
0, //36
#END
