//TJADB Project
TITLE:Midnight to the Morning
TITLEJA:開往早晨的午夜
TITLEZH:开往早晨的午夜
SUBTITLE:--
SUBTITLEJA:
SUBTITLEZH:
BPM:114
WAVE:Midnight to the Morning.ogg
OFFSET:-1.815
DEMOSTART:59.389

COURSE:Oni
LEVEL:6
BALLOON:24,24
SCOREINIT:3220
SCOREDIFF:0
#START
10010010,
20020020,
10010010,
20020020,
10010010,
2, //6
1001201000202000,
1001201000201000,
1001201000202050,
000000000000000000000000000000000000000008000000,
1001201000201010,
2002002010112020, //12
1000201110002000,
1000200010112020,
1000201110002000,
1000202010112020,
10211020,
1000201110002000,
500000000000000000000000000000000008000000200200,
2002002010112020, //20
1001201110002000,
1001200010112020,
1001201110002000,
1001201020112020,
1001201020222030,
0000000010112010,
500000000000000000000008000000400000400000400000,
0022221010112020, //28
#GOGOSTART
3000201120012220,
1000201110102020,
1000201120102020,
1000200010112020,
1000201120102000,
1000201110102220,
7,
0080001010112020, //36
3000201120012220,
1000201110102020,
1000201120102220,
1000201110212000,
7,
0080201110212000,
600000000000000000000000000008000000000000300000,
03332020, //44
3000201110212000,
1000102220112000,
1000201110102220,
1002102220102000,
3000201110102000,
1000102220112020,
600000000000000000000000000000000008000000300000,
#GOGOEND
0, //52
#END

COURSE:Hard
LEVEL:4
BALLOON:21,21
SCOREINIT:4840
SCOREDIFF:0
#START
10010010,
20020020,
10010010,
20020020,
10010010,
2, //6
10010220,
10010110,
10010225,
000000000000000000000000000000000000000008000000,
10110110,
20001122, //12
10011000,
00001122,
10022000,
00021122,
1,
00011020,
500000000000000000000000000000000008000000200000,
2002002010102020, //20
10011020,
10001122,
10022020,
10021122,
10010203,
00001121,
500000000000000000000008000000400000400000400000,
00011122, //28
#GOGOSTART
30211020,
10211121,
10211221,
10201122,
10212020,
10211020,
7,
08011122, //36
30211020,
10211121,
10211020,
10211020,
7,
08211020,
600000000000000000000000000008000000000000300000,
03332020, //44
30211020,
10122020,
10211022,
10112020,
30211010,
10122020,
600000000000000000000000000000000008000000300000,
#GOGOEND
0, //52
#END

COURSE:Normal
LEVEL:4
BALLOON:14,14
SCOREINIT:7180
SCOREDIFF:0
#START
10010000,
20020000,
10010000,
20020000,
10010000,
2, //6
10010020,
10010010,
10010025,
000000000000000000000000000008000000000000000000,
10010010,
20001110, //12
10011000,
00001110,
10022000,
00001110,
1,
0011,
500000000000000000000000000000000008000000000000,
00001110, //20
10011000,
00001110,
10022000,
00001110,
10010003,
00002220,
500000000000000000000008000000000000000000000000,
00001110, //28
#GOGOSTART
30111020,
10001110,
10111020,
10001110,
1022,
1011,
7,
08001110, //36
30111020,
10001110,
10111020,
1011,
7,
08001010,
6,
000008000000000000000000200000000000200000000000, //44
30011010,
10011020,
10011010,
2022,
30011010,
10011020,
600000000000000000000000000000000008000000300000,
#GOGOEND
0, //52
#END

COURSE:Easy
LEVEL:2
BALLOON:11,11
SCOREINIT:11550
SCOREDIFF:0
#START
1,
0,
1,
0,
1,
0, //6
10010000,
1,
10010005,
000000000000000000000000000008000000000000000000,
1,
2011, //12
11,
0011,
12,
0011,
1,
0011,
500000000000000000000000000000000008000000000000,
0011, //20
11,
0011,
12,
0011,
10000003,
02,
500000000000000000000008000000000000000000000000,
0011, //28
#GOGOSTART
3011,
1011,
1011,
12,
1011,
1011,
7,
08002000, //36
3011,
1011,
1011,
12,
7,
08001010,
6,
000008000000000000000000200000000000000000000000, //44
32,
1011,
11,
2011,
32,
1011,
600000000000000000000008000000000000000000300000,
#GOGOEND
0, //52
#END
