//TJADB Project
TITLE:WOW
TITLEJA:WOW
TITLEZH:WOW
SUBTITLE:--
SUBTITLEJA:
BPM:90
WAVE:WOW.ogg
OFFSET:-3.015
DEMOSTART:67.014

COURSE:Oni
LEVEL:7
BALLOON:
SCOREINIT:3280
SCOREDIFF:0
#START
22202220,
22202220,
11101120,
11101120,
1011102010112020,
1011102010112020,
1122101022112020,
1122101022112022, //8
1001001110020011,
1001001120220201,
0111202011110001,
0111202011220212,
1001001110020011,
1001001120220201,
0111202011110001,
0111202011220111, //16
1002011110020111,
2002011120220201,
0111202011110221,
0111202011220211,
1010201011020105,
000000000000000000000000000008000000000000100100,
1010201011010120,
3000201040401122, //24
#GOGOSTART
1001201110110201,
0111202011020110,
1111201011112010,
1121201011020200,
3001201110110201,
0111202011020110,
1111201011112010,
1121201011020200,
#GOGOEND
3,
0, //34
#END

COURSE:Hard
LEVEL:5
BALLOON:
SCOREINIT:5180
SCOREDIFF:0
#START
2222,
2022,
1111,
1122,
11101120,
11101120,
12112122,
12112122, //8
1001000010020000,
1001000020020201,
0010201010110001,
0010202020220000,
1001000010020000,
1001000020220201,
0010201010110001,
0010202020220000, //16
1001000010020000,
2002000020220201,
0010201010110001,
0010202020220000,
1010201010010005,
000000000000000000000000000008000000000000000000,
1010201010010000,
34, //24
#GOGOSTART
3000202010110001,
0110202011010220,
11221122,
1010202011020200,
3000202010110001,
0110202011010220,
11221122,
1010202011020200,
#GOGOEND
3,
0, //34
#END

COURSE:Normal
LEVEL:4
BALLOON:
SCOREINIT:8120
SCOREDIFF:0
#START
22,
22,
11,
1022,
1112,
1112,
10111010,
20222020, //8
1001000010010000,
1001000020000001,
0000101010000001,
00222000,
1001000010010000,
1001000020000001,
0000101010000001,
00222000, //16
1001000010010000,
2002000020000001,
0000101010000001,
00222000,
1010100010010005,
000000000000000000000000000008000000000000000000,
1010100010010000,
34, //24
#GOGOSTART
3000200010010001,
0000100010010000,
11102220,
1010100010010000,
3000200010010001,
0000100010010000,
11102220,
1010100010010000,
#GOGOEND
3,
0, //34
#END

COURSE:Easy
LEVEL:2
BALLOON:
SCOREINIT:14650
SCOREDIFF:0
#START
2,
2,
1,
1,
11,
11,
12,
12, //8
11,
1000000020000005,
000000000000000000000008000000000000000000000100,
0220,
11,
1000000020000005,
000000000000000000000008000000000000000000000100,
0220, //16
11,
1000000020000005,
000000000000000000000008000000000000000000000100,
0220,
1000100010000005,
000000000000000000000000000008000000000000000000,
1110,
34, //24
#GOGOSTART
3000100010000001,
0110,
1212,
1120,
3000100010000001,
0110,
1212,
1120,
#GOGOEND
3,
0, //34
#END
