//TJADB Project
TITLE:Dance Hall
TITLEJA:ダンスホール
SUBTITLE:--
SUBTITLEJA:
BPM:110
WAVE:Dance Hall.ogg
OFFSET:-2.165
DEMOSTART:62.433 //Shinuchi:
8810/5590/2960/2060

COURSE:Oni
LEVEL:7
BALLOON:14,6
SCOREINIT:620,2110
SCOREDIFF:170
#START
0202,
0202,
1010201102201120,
1010201100111120,
100000101010200000200100000100100000200000000000,
100000100000200000000200100010001000100000202020, //6
#GOGOSTART
1010202010120210,
2011120201101020,
1010202010120210,
1010202210110220,
1010202012201020,
03230211, //12
#GOGOEND
1001200220012002,
1010202211102000,
1001200220012002,
100100200222100200200100,
1000200210201011,
1020111201102000,
22112112,
1011120201101020, //20
1001200220012002,
1022102011102000,
11201220,
1010201120102210,
1010200120102010,
100000200000500000000008000000200000100000100000,
1020201022102010,
300000202020100200200200000200100000100000200000, //28
#GOGOSTART
1010201101112020,
1010201102201020,
1010201102201120,
1010201102211020,
1010201101112020,
1010201102201020,
1010201102201120,
1111201102202200, //36
#GOGOEND
500000000000000008000000100100200100100000200000,
70008222,
1000200101112020,
1000200100002020,
1000200100202020,
1000200101101120, //42
#GOGOSTART
1010201101112020,
100000100000200000100100000000101010200000200000,
1010202012201020,
#GOGOEND
1000200100303040,
#GOGOSTART
1010202202211020,
1020101101112020,
1011022201110220,
1020110101102020, //50
1020102210201022,
1010202011201020,
1122102210120020,
1001202100112211,
1111700080220000,
#GOGOEND
0,
0, //57
#END

COURSE:Hard
LEVEL:6
BALLOON:14,14
SCOREINIT:730,3170
SCOREDIFF:210
#START
0202,
0202,
0202,
3000400300111010,
4000300400000000,
7008, //6
#GOGOSTART
1000100010120010,
1010201100101020,
1000100010120010,
1010201110220010,
1000100110102010,
03230210, //12
#GOGOEND
1001100110022001,
1000201022200000,
1001100110022001,
10201121,
1000100110102000,
1000222200200000,
22201110,
2000220200101020, //20
1001100220011001,
1020101022202000,
2212,
1000201110002000,
1000100110102010,
1010200220200010,
11221111,
500000000000000000000000000000000008000000000000, //28
#GOGOSTART
1000200101101020,
1000200102202010,
1000200100102010,
1000200101101020,
1000200101101020,
1000200102202010,
1000200100111020,
1000200100000000, //36
#GOGOEND
900000000000000000000000000000000009000000000008,
0,
1000200100002000,
1000200100002020,
10201122,
1000200100002020, //42
#GOGOSTART
1000200101101020,
1000200100102010,
1000102020222010,
#GOGOEND
1000200100303040,
#GOGOSTART
5,
000000000008000000000200000100100000100000200000,
1011011020220220,
1000200100001000, //50
1010201010102001,
11211122,
1110101010110020,
3000400300111010,
4011100400220000,
#GOGOEND
0,
0, //57
#END

COURSE:Normal
LEVEL:3
BALLOON:10,5,12,4
SCOREINIT:870,6140
SCOREDIFF:315
#START
0202,
0202,
0202,
3000300300000000,
4000400400000000,
7008, //6
#GOGOSTART
1000100010020010,
0,
1000100010020010,
02,
10101101,
07008000, //12
#GOGOEND
11,
12,
1012,
1011,
10001110,
12,
2211,
20000110, //20
1121,
12,
2212,
21,
10101110,
12,
10101110,
500000000000000000000000000000000008000000000000, //28
#GOGOSTART
1000100100002000,
1000100100002000,
2000200200001000,
1000100100002000,
1000100100002000,
1000100100002000,
2000200200001000,
1000100100000000, //36
#GOGOEND
900000000000000000000000000000000009000000000008,
0,
2000200200000000,
2000200200000000,
22,
2000200200000000, //42
#GOGOSTART
1000100100002000,
1000100100002000,
10102220,
#GOGOEND
1000200100002000,
#GOGOSTART
5,
000000000008000000000000000000000000100000000000,
1122,
1000100100000000, //50
10101110,
10102220,
10101100,
3000300300001000,
4000300700008000,
#GOGOEND
0,
0, //57
#END

COURSE:Easy
LEVEL:2
BALLOON:6,4,10,3
SCOREINIT:870,9760
SCOREDIFF:470
#START
0202,
0202,
0202,
3300,
4400,
70000800, //6
#GOGOSTART
10101001,
0,
10101001,
0,
1110,
07008000, //12
#GOGOEND
11,
1,
11,
1,
1011,
1,
2220,
2, //20
12,
1,
21,
2,
1011,
1,
1110,
500000000000000000000000000008000000000000000000, //28
#GOGOSTART
1101,
1102,
2201,
1101,
1101,
1102,
2201,
1100, //36
#GOGOEND
900000000000000000000000000000000009000000000008,
0,
2,
2,
22,
2, //42
#GOGOSTART
1101,
1101,
11,
#GOGOEND
2200,
#GOGOSTART
5,
000000000008000000000000000000000000000000000000,
12,
1100, //50
1110,
1110,
11,
3300,
4000400700008000,
#GOGOEND
0,
0, //57
#END
